<?xml version="1.0" standalone="no"?>
<!DOCTYPE svg PUBLIC "-//W3C//DTD SVG 1.1//EN" "http://www.w3.org/Graphics/SVG/1.1/DTD/svg11.dtd" >
<svg xmlns="http://www.w3.org/2000/svg" xmlns:xlink="http://www.w3.org/1999/xlink" version="1.1">
<metadata>
Created by FontForge 20201107 at Mon Nov 25 05:53:00 2013
 By 
Copyright (c) 2013 by Chorong Kim &#38; Cadson Demak Team for SCG Group. All rights reserved.
</metadata>
<defs>
<font id="SCG-Bold" horiz-adv-x="0" >
  <font-face 
    font-family="SCG"
    font-weight="700"
    font-stretch="normal"
    units-per-em="1000"
    panose-1="2 0 5 3 0 0 0 2 0 4"
    ascent="800"
    descent="-200"
    x-height="450"
    cap-height="610"
    bbox="-670 -480 1182 1104"
    underline-thickness="20"
    underline-position="-133"
    unicode-range="U+0020-FB02"
  />
<missing-glyph horiz-adv-x="555" 
d="M0 0v700h555v-700h-555zM466 650h-377l188 -255zM500 605l-189 -255l189 -255v510zM277 305l-188 -255h377zM244 350l-188 255v-510z" />
    <glyph glyph-name="uni0E5A" unicode="&#xe2f;&#xe2f;" horiz-adv-x="816" 
d="M356 -80v480q-30 -35 -69 -55t-93 -20q-73 0 -113.5 35.5t-40.5 110.5q0 23 3.5 44.5t6.5 31.5h129q-3 -8 -6 -24t-3 -32q0 -17 13 -32.5t42 -15.5q27 0 48 9t36.5 23.5t27 33t19.5 38.5h154v-627h-154zM600 -80v627h154v-627h-154z" />
    <glyph glyph-name="uni0E4F.liga" unicode="&#xe4f;&#x22;" horiz-adv-x="584" 
d="M154 537l-16 223h125l-16 -223h-93zM337 537l-16 223h125l-16 -223h-93zM520 248q0 -50 -18.5 -91.5t-50 -71.5t-73.5 -47t-88 -17q-47 0 -88.5 17t-73 47t-50 71.5t-18.5 91.5q0 49 18.5 90.5t50 71.5t73 46.5t88.5 16.5q46 0 88 -16.5t73.5 -46.5t50 -71.5t18.5 -90.5z
M290 56q40 0 74.5 15t60.5 41t41 61t15 75q0 39 -15 73.5t-41 60.5t-60.5 41t-74.5 15q-39 0 -74 -15t-61 -41t-41 -60.5t-15 -73.5q0 -40 15 -75t41 -61t61 -41t74 -15zM290 156q38 0 64.5 26.5t26.5 64.5t-26.5 64.5t-64.5 26.5t-64.5 -26.5t-26.5 -64.5t26.5 -64.5
t64.5 -26.5zM290 113q-28 0 -52.5 10.5t-42.5 29t-28.5 43t-10.5 52.5q0 27 10.5 51t28.5 42.5t42.5 29t52.5 10.5t52.5 -10.5t42.5 -29t28.5 -42.5t10.5 -51q0 -28 -10.5 -52.5t-28.5 -43t-42.5 -29t-52.5 -10.5z" />
    <glyph glyph-name="uni0E24.liga" unicode="&#xe24;&#xe32;" horiz-adv-x="1032" 
d="M819 -223v536q0 67 -26 100t-92 33q-31 0 -62.5 -7t-54.5 -15q17 -48 17 -105v-542h-154v536q0 67 -26 100t-92 33q-31 0 -60.5 -3.5t-52.5 -8.5v-277q0 -37 12.5 -50.5t50.5 -13.5q17 0 34.5 3t40.5 11v-105q-20 -8 -48.5 -13t-66.5 -5q-39 0 -71.5 8.5t-56 28
t-36.5 50.5t-13 76v371q21 7 51.5 15t66.5 14.5t75 11t78 4.5q48 0 89 -8.5t73 -26.5q45 13 102.5 24t117.5 11q58 0 106 -13t81.5 -42t52 -75.5t18.5 -113.5v-542h-154z" />
    <glyph glyph-name="uni0E26.liga" unicode="&#xe26;&#xe32;" horiz-adv-x="1043" 
d="M830 -223v536q0 67 -26 100t-92 33q-26 0 -53.5 -5t-49.5 -12q15 -45 15 -104v-548h-154v544q0 30 -4 53.5t-15 39.5t-31 24t-53 8q-29 0 -52.5 -3.5t-46.5 -8.5v-283q0 -46 -10 -77t-30 -50t-49 -27.5t-68 -8.5q-29 0 -51 3.5t-44 10.5v105q27 -10 55 -10q23 0 33 12
t10 41v368q21 7 50.5 15t63 14.5t70.5 11t73 4.5q91 0 150 -30q45 11 97.5 20.5t107.5 9.5q58 0 106 -13t81.5 -42t52 -75.5t18.5 -113.5v-542h-154z" />
    <glyph glyph-name="fi" unicode="fi" horiz-adv-x="657" 
d="M92 0v346h-78v104h78v17q0 99 76.5 149t239.5 50q63 0 108.5 -7t78.5 -15v-113q-43 8 -83.5 13.5t-88.5 5.5q-44 0 -77 -3t-55 -12t-33.5 -25.5t-11.5 -42.5v-17h122v-103h-122v-347h-154zM443 0v450h152v-450h-152z" />
    <glyph glyph-name="fl" unicode="fl" horiz-adv-x="657" 
d="M441 0v551q-10 2 -27.5 3t-42.5 1q-67 0 -96 -20t-29 -68v-17h122v-103h-122v-347h-154v346h-78v104h78v17q0 45 14 82t46.5 63t84.5 40t128 14q72 0 133 -7t97 -15v-644h-154z" />
    <glyph glyph-name=".notdef" horiz-adv-x="555" 
d="M0 0v700h555v-700h-555zM466 650h-377l188 -255zM500 605l-189 -255l189 -255v510zM277 305l-188 -255h377zM244 350l-188 255v-510z" />
    <glyph glyph-name=".null" 
 />
    <glyph glyph-name="nonmarkingreturn" horiz-adv-x="250" 
 />
    <glyph glyph-name="space" unicode=" " horiz-adv-x="250" 
 />
    <glyph glyph-name="exclam" unicode="!" horiz-adv-x="312" 
d="M89 230l-21 380h176l-21 -380h-134zM157 -13q-20 0 -37.5 7.5t-31 20.5t-21 30.5t-7.5 37.5q0 42 28.5 69t68.5 27q20 0 37.5 -8t30 -21.5t20 -30.5t7.5 -36q0 -42 -27.5 -69t-67.5 -27z" />
    <glyph glyph-name="quotedbl" unicode="&#x22;" horiz-adv-x="436" 
d="M69 410l-17 240h135l-18 -240h-100zM266 410l-17 240h135l-18 -240h-100z" />
    <glyph glyph-name="numbersign" unicode="#" horiz-adv-x="652" 
d="M329 0l36 167h-144l-34 -167h-101l36 167h-90v96h110l25 122h-95v97h116l34 166h100l-35 -166h144l34 166h101l-36 -166h90v-97h-110l-25 -122h95v-96h-116l-34 -167h-101zM411 385h-144l-26 -122h144z" />
    <glyph glyph-name="dollar" unicode="$" horiz-adv-x="652" 
d="M285 -100v87q-72 4 -127 24t-88 47l58 108q37 -29 79.5 -44t100.5 -15q19 0 39.5 1.5t37 7t27 15t10.5 25.5q0 28 -25 47t-62.5 34.5t-81 31.5t-81 38.5t-62.5 56t-25 83.5q0 78 53 121t147 52v90h80v-89q72 -5 118.5 -26.5t74.5 -47.5l-58 -100q-29 26 -64 41.5
t-89 15.5q-46 0 -76 -14t-30 -40q0 -22 25 -38t63 -30.5t81.5 -31.5t81.5 -42t63 -61t25 -89q0 -41 -15 -71.5t-43 -51t-68 -32.5t-89 -15v-88h-80z" />
    <glyph glyph-name="percent" unicode="%" horiz-adv-x="732" 
d="M189 0h-101l456 610h100zM338 475q0 -31 -10.5 -58t-30 -46.5t-47.5 -31t-63 -11.5t-63 11.5t-47.5 31t-30 46.5t-10.5 58t10.5 58.5t30 47.5t47.5 31.5t63 11.5t63 -11.5t47.5 -31.5t30 -47.5t10.5 -58.5zM187 401q33 0 47.5 21.5t14.5 53.5t-14.5 53.5t-47.5 21.5
t-47.5 -21.5t-14.5 -53.5t14.5 -53.5t47.5 -21.5zM696 131q0 -31 -10.5 -58t-30 -46.5t-47.5 -31t-63 -11.5t-63 11.5t-47.5 31t-30 46.5t-10.5 58t10.5 58.5t30 47.5t47.5 31.5t63 11.5t63 -11.5t47.5 -31.5t30 -47.5t10.5 -58.5zM545 57q33 0 47.5 21.5t14.5 53.5
t-14.5 53.5t-47.5 21.5t-47.5 -21.5t-14.5 -53.5t14.5 -53.5t47.5 -21.5z" />
    <glyph glyph-name="ampersand" unicode="&#x26;" horiz-adv-x="682" 
d="M507 0l-45 44q-42 -28 -92 -44t-107 -16q-51 0 -93.5 12.5t-73.5 35.5t-48.5 56.5t-17.5 75.5q0 32 8.5 56.5t25 44t39.5 36.5t52 34q-11 9 -23 21.5t-22.5 29.5t-17.5 39.5t-7 50.5q0 69 57 109.5t154 40.5q108 0 160 -44.5t52 -128.5h-141q0 47 -18.5 63.5t-54.5 16.5
q-30 0 -48 -16t-18 -40q0 -25 16 -48t34 -41l177 -175q24 57 24 130h147q0 -57 -20.5 -114.5t-58.5 -105.5l129 -123h-169zM237 263q-23 -16 -42 -37.5t-19 -53.5q0 -23 10 -38.5t25.5 -25t33.5 -13.5t34 -4q56 0 100 28z" />
    <glyph glyph-name="quotesingle" unicode="'" horiz-adv-x="247" 
d="M73 410l-17 240h135l-18 -240h-100z" />
    <glyph glyph-name="parenleft" unicode="(" horiz-adv-x="324" 
d="M304 -136q-58 17 -106 52.5t-82 87t-53 117t-19 142.5t19 142.5t53 117t82 87t106 52.5v-98q-26 -14 -47.5 -42.5t-37 -68t-24 -88t-8.5 -102.5t8.5 -102.5t24 -88t37 -68t47.5 -42.5v-98z" />
    <glyph glyph-name="parenright" unicode=")" horiz-adv-x="324" 
d="M20 -38q26 14 47.5 42.5t37 68t24 88t8.5 102.5t-8.5 102.5t-24 88t-37 68t-47.5 42.5v98q58 -17 106 -52.5t82 -87t53 -117t19 -142.5t-19 -142.5t-53 -117t-82 -87t-106 -52.5v98z" />
    <glyph glyph-name="asterisk" unicode="*" horiz-adv-x="437" 
d="M257 412l16 -116h-109l16 116l-95 -78l-53 81l119 57l-119 60l54 78l94 -75l-16 115h109l-16 -115l94 75l54 -78l-119 -60l119 -57l-53 -81z" />
    <glyph glyph-name="plus" unicode="+" horiz-adv-x="548" 
d="M209 78v181h-171v110h171v181h130v-181h171v-110h-171v-181h-130z" />
    <glyph glyph-name="comma" unicode="," horiz-adv-x="289" 
d="M59 -114q10 9 21 21t20.5 25t15.5 27.5t6 29.5q-14 2 -27.5 9.5t-25 19.5t-18.5 28.5t-7 37.5q0 42 26.5 68.5t71.5 26.5q28 0 48 -9.5t32 -24t17.5 -33t5.5 -36.5q0 -38 -12 -71t-30 -60t-40 -48t-42 -35z" />
    <glyph glyph-name="hyphen" unicode="-" horiz-adv-x="353" 
d="M30 235v131h293v-131h-293z" />
    <glyph glyph-name="period" unicode="." horiz-adv-x="280" 
d="M141 -13q-20 0 -37.5 7.5t-31 20.5t-21 30.5t-7.5 37.5q0 42 28.5 69t68.5 27q20 0 37.5 -8t30 -21.5t20 -30.5t7.5 -36q0 -42 -27.5 -69t-67.5 -27z" />
    <glyph glyph-name="slash" unicode="/" horiz-adv-x="496" 
d="M10 -40l356 690h120l-356 -690h-120z" />
    <glyph glyph-name="zero" unicode="0" horiz-adv-x="652" 
d="M326 -18q-62 0 -114 20.5t-90 61t-59 100.5t-21 140q0 79 21 139.5t59 101t90 61t114 20.5t114 -20.5t90 -61t59 -101t21 -139.5q0 -80 -21 -140t-59 -100.5t-90 -61t-114 -20.5zM326 100q36 0 60.5 14.5t39.5 41.5t21.5 64.5t6.5 83.5t-6.5 83.5t-21.5 64.5t-39.5 41.5
t-60.5 14.5t-60.5 -14.5t-39.5 -41.5t-21.5 -64.5t-6.5 -83.5t6.5 -83.5t21.5 -64.5t39.5 -41.5t60.5 -14.5z" />
    <glyph glyph-name="one" unicode="1" horiz-adv-x="422" 
d="M192 0v459q-30 -33 -77 -44.5t-93 -10.5v129q36 -2 68 5.5t56.5 19.5t41.5 26t24 26h130v-610h-150z" />
    <glyph glyph-name="two" unicode="2" horiz-adv-x="518" 
d="M30 0v108q85 57 140 100.5t86.5 78t43.5 64.5t12 60q0 95 -105 95q-48 0 -90.5 -12t-82.5 -35v132q29 13 74 24t112 11q70 0 117.5 -17.5t76.5 -46.5t41.5 -66.5t12.5 -77.5q0 -50 -22.5 -93.5t-57 -80.5t-77 -68t-81.5 -56h250v-120h-450z" />
    <glyph glyph-name="three" unicode="3" horiz-adv-x="512" 
d="M353 318q57 -11 90 -48.5t33 -97.5q0 -47 -19 -82t-53.5 -58.5t-81.5 -35.5t-102 -12q-67 0 -113.5 10.5t-72.5 22.5v122q13 -8 34 -14.5t44 -11.5t45.5 -8t40.5 -3q53 0 87.5 18t34.5 65q0 27 -14 43t-37 24t-54.5 9t-65.5 -2v110q32 0 60.5 3t50.5 11.5t34.5 22.5
t12.5 36q0 66 -113 66q-38 0 -79.5 -9.5t-70.5 -26.5v120q28 13 77 22.5t109 9.5q105 0 166.5 -41t61.5 -125q0 -54 -27 -88.5t-78 -49.5v-2z" />
    <glyph glyph-name="four" unicode="4" horiz-adv-x="575" 
d="M321 0v113h-309v102l305 395h154v-382h84v-115h-84v-113h-150zM321 433l-156 -205h156v205z" />
    <glyph glyph-name="five" unicode="5" horiz-adv-x="534" 
d="M34 136q29 -14 72 -23.5t88 -9.5q69 0 107 22.5t38 74.5q0 86 -149 86q-43 0 -77.5 -3t-63.5 -7l12 334h404v-120h-268l-4 -91q11 1 26.5 1h25.5q66 0 113.5 -15t78 -41.5t45 -63t14.5 -78.5q0 -54 -21.5 -95t-59.5 -68t-90 -41t-112 -14q-27 0 -53.5 2.5t-50.5 7
t-43.5 10t-31.5 11.5v121z" />
    <glyph glyph-name="six" unicode="6" horiz-adv-x="571" 
d="M479 478q-22 12 -55 20t-70 8q-44 0 -73.5 -11.5t-48 -32.5t-28 -50t-12.5 -64q56 50 145 50q51 0 88.5 -15.5t63 -42t38 -62t12.5 -75.5q0 -49 -16 -89t-46 -68.5t-73 -44.5t-98 -16q-61 0 -110 19t-83.5 58t-53.5 97.5t-19 138.5t22 141t61 102t93 62t119 21
q49 0 84 -7.5t60 -15.5v-123zM190 227q5 -57 35 -90.5t73 -33.5q15 0 32 4t31.5 14.5t24 30t9.5 49.5q0 17 -5 33.5t-16 30t-28.5 21.5t-41.5 8q-35 0 -66 -20t-48 -47z" />
    <glyph glyph-name="seven" unicode="7" horiz-adv-x="481" 
d="M82 0l216 490h-286v120h453v-109l-219 -501h-164z" />
    <glyph glyph-name="eight" unicode="8" horiz-adv-x="542" 
d="M403 315q60 -17 85.5 -56t25.5 -90q0 -42 -17 -76.5t-49.5 -59t-79.5 -38t-107 -13.5q-56 0 -99.5 13.5t-73 37.5t-45 56.5t-15.5 70.5q0 51 28 91t85 58v2q-56 20 -78 58.5t-22 85.5q0 36 15.5 67.5t45 54.5t72 36t95.5 13t95.5 -12.5t72 -35t45 -54t15.5 -69.5
q0 -54 -29 -88.5t-65 -49.5v-2zM240 254q-26 -10 -47 -32t-21 -51q0 -21 8.5 -36t23 -25t32 -14.5t35.5 -4.5t35.5 4.5t31.5 14.5t23 25.5t9 38.5q0 19 -11 32t-29 22.5t-41.5 15.5t-48.5 10zM304 368q21 14 37 38t16 49q0 26 -22.5 45t-64.5 19q-13 0 -28 -3.5t-28.5 -11
t-22.5 -19.5t-9 -30q0 -37 32 -58t90 -29z" />
    <glyph glyph-name="nine" unicode="9" horiz-adv-x="571" 
d="M92 131q22 -12 55 -20t70 -8q43 0 73 11.5t48.5 32.5t28 50t12.5 64q-27 -24 -63.5 -37t-81.5 -13q-51 0 -88.5 15.5t-63 42t-38 62t-12.5 75.5q0 49 16 89t46 68.5t73 44.5t98 16q61 0 110 -19t83.5 -58t53.5 -98t19 -138q0 -80 -22 -141t-61 -102t-93.5 -62t-118.5 -21
q-49 0 -84 7.5t-60 15.5v123zM381 382q-5 57 -35 90.5t-73 33.5q-15 0 -32 -4t-31.5 -14.5t-24 -30t-9.5 -49.5q0 -17 5 -33.5t16 -30t28.5 -21.5t41.5 -8q35 0 66 20t48 47z" />
    <glyph glyph-name="colon" unicode=":" horiz-adv-x="312" 
d="M157 -13q-20 0 -37.5 7.5t-31 20.5t-21 30.5t-7.5 37.5q0 42 28.5 69t68.5 27q20 0 37.5 -8t30 -21.5t20 -30.5t7.5 -36q0 -42 -27.5 -69t-67.5 -27zM157 320q-20 0 -37.5 7.5t-31 20.5t-21 30.5t-7.5 37.5q0 42 28.5 69t68.5 27q20 0 37.5 -8t30 -21.5t20 -30.5t7.5 -36
q0 -42 -27.5 -69t-67.5 -27z" />
    <glyph glyph-name="semicolon" unicode=";" horiz-adv-x="312" 
d="M161 320q-20 0 -37.5 7.5t-31 20.5t-21 30.5t-7.5 37.5q0 42 28.5 69t68.5 27q20 0 37.5 -8t30 -21.5t20 -30.5t7.5 -36q0 -42 -27.5 -69t-67.5 -27zM72 -114q10 9 21 21t20.5 25t15.5 27.5t6 29.5q-14 2 -27.5 9.5t-25 19.5t-18.5 28.5t-7 37.5q0 42 26.5 68.5
t71.5 26.5q28 0 48 -9.5t32 -24t17.5 -33t5.5 -36.5q0 -38 -12 -71t-30 -60t-40 -48t-42 -35z" />
    <glyph glyph-name="less" unicode="&#x3c;" horiz-adv-x="548" 
d="M22 285v96l466 224v-119l-336 -153l336 -153v-119z" />
    <glyph glyph-name="equal" unicode="=" horiz-adv-x="548" 
d="M58 346v108h432v-108h-432zM58 147v108h432v-108h-432z" />
    <glyph glyph-name="greater" unicode="&#x3e;" horiz-adv-x="548" 
d="M60 61v119l336 153l-336 153v119l466 -224v-96z" />
    <glyph glyph-name="question" unicode="?" horiz-adv-x="461" 
d="M128 230q28 27 53 54.5t44 54.5t30 53.5t11 52.5q0 69 -84 69q-33 0 -74 -8.5t-72 -23.5v105q30 16 73 27.5t106 11.5q39 0 75 -8t64.5 -27t45.5 -49.5t17 -76.5q0 -34 -15.5 -67.5t-39 -64t-50.5 -57t-50 -46.5h-134zM193 -13q-20 0 -37.5 7.5t-31 20.5t-21 30.5
t-7.5 37.5q0 42 28.5 69t68.5 27q20 0 37.5 -8t30 -21.5t20 -30.5t7.5 -36q0 -42 -27.5 -69t-67.5 -27z" />
    <glyph glyph-name="at" unicode="@" horiz-adv-x="756" 
d="M732 146q-20 -41 -54 -71t-77 -49.5t-93 -29t-102 -9.5q-80 0 -147 20.5t-115 60.5t-75 99.5t-27 137.5q0 67 23.5 131t69.5 114t115 80.5t160 30.5q69 0 125 -21t95.5 -57t61.5 -85.5t22 -106.5q0 -48 -15.5 -95t-43 -84t-66 -59.5t-84.5 -22.5q-42 0 -58 15t-20 36
q-16 -20 -39 -35.5t-58 -15.5q-66 0 -103.5 44t-37.5 116q0 37 11.5 76.5t35.5 72t61 53.5t89 21q32 0 58 -12t33 -28l6 31h105l-50 -253q-5 -20 -5 -33q0 -16 14 -16q13 0 30.5 15t32.5 41t25.5 61t10.5 75q0 34 -12 71.5t-40 69t-73 51.5t-112 20q-84 0 -141.5 -32
t-92.5 -79t-50 -99.5t-15 -94.5q0 -47 16 -93t51.5 -83t92.5 -60t140 -23q56 0 97.5 11t71 27t48.5 34t31 32h74zM455 391q-8 17 -21 30.5t-40 13.5q-20 0 -36 -11.5t-26.5 -30.5t-16 -45t-5.5 -54q0 -38 15.5 -59t38.5 -21q20 0 38 13.5t31 38.5z" />
    <glyph glyph-name="A" unicode="A" horiz-adv-x="684" 
d="M377 368l-34 118h-2l-34 -118l-43 -120h156zM519 0l-50 130h-253l-51 -130h-163l251 610h178l251 -610h-163z" />
    <glyph glyph-name="B" unicode="B" horiz-adv-x="611" 
d="M64 0v610h268q46 0 85.5 -8.5t69 -27t46.5 -48t17 -72.5q0 -48 -22.5 -80.5t-48.5 -49.5v-2q19 -6 37 -17t32.5 -29t23.5 -43t9 -58q0 -47 -18 -80.5t-50.5 -54.5t-77.5 -30.5t-98 -9.5h-273zM378 366q6 11 10.5 28.5t4.5 37.5q0 33 -17 47t-62 14h-97v-127h161zM324 117
q17 0 34.5 2t32 9.5t23.5 21t9 37.5q0 22 -8 34.5t-22 18.5t-33 7.5t-41 1.5h-102v-132h107z" />
    <glyph glyph-name="C" unicode="C" horiz-adv-x="634" 
d="M594 26q-23 -15 -73.5 -29.5t-126.5 -14.5q-71 0 -135 19.5t-113 59.5t-77.5 101t-28.5 144q0 77 28.5 137t77.5 100.5t114 61.5t137 21q69 0 115 -11t75 -24v-133q-34 22 -76.5 35t-99.5 13q-97 0 -152 -53t-55 -147q0 -49 16 -87t44.5 -64t67.5 -39.5t86 -13.5
q49 0 94 13.5t82 41.5v-131z" />
    <glyph glyph-name="D" unicode="D" horiz-adv-x="675" 
d="M307 122q94 0 132 46.5t38 145.5q0 93 -41 133.5t-126 40.5h-90v-366h87zM64 0v610h248q69 0 128 -17.5t102.5 -54t68 -92.5t24.5 -132q0 -83 -24 -142.5t-67.5 -97.5t-103 -56t-131.5 -18h-245z" />
    <glyph glyph-name="E" unicode="E" horiz-adv-x="532" 
d="M64 0v610h426v-122h-272v-116h248v-119h-248v-131h272v-122h-426z" />
    <glyph glyph-name="F" unicode="F" horiz-adv-x="518" 
d="M220 222v-222h-156v610h428v-122h-274v-147h256v-119h-254z" />
    <glyph glyph-name="G" unicode="G" horiz-adv-x="707" 
d="M509 304h148v-268q-45 -20 -110 -37t-146 -17q-74 0 -140 19.5t-115 58.5t-77.5 97.5t-28.5 136.5q0 81 30 143t82.5 104t123.5 63.5t152 21.5q66 0 119 -10t88 -26v-131q-37 20 -92 33.5t-107 13.5q-50 0 -92.5 -11.5t-73.5 -36t-48.5 -64t-17.5 -95.5q0 -49 15.5 -85.5
t43.5 -61t67 -36.5t87 -12q32 0 52 3.5t40 11.5v185z" />
    <glyph glyph-name="H" unicode="H" horiz-adv-x="692" 
d="M472 0v251h-252v-251h-156v610h156v-235h252v235h156v-610h-156z" />
    <glyph glyph-name="I" unicode="I" horiz-adv-x="288" 
d="M66 0v610h156v-610h-156z" />
    <glyph glyph-name="J" unicode="J" horiz-adv-x="393" 
d="M20 124q16 -8 37 -13t40 -5q40 0 59 17t19 63v424h156v-428q0 -105 -52.5 -151.5t-145.5 -46.5q-26 0 -59 5t-54 14v121z" />
    <glyph glyph-name="K" unicode="K" horiz-adv-x="630" 
d="M453 0l-237 308v-308h-152v610h152v-265l232 265h168l-248 -278l260 -332h-175z" />
    <glyph glyph-name="L" unicode="L" horiz-adv-x="504" 
d="M64 0v610h156v-486h258v-124h-414z" />
    <glyph glyph-name="M" unicode="M" horiz-adv-x="840" 
d="M652 0l-22 305v152h-2l-37 -145l-105 -312h-132l-105 312l-37 145h-2v-152l-22 -305h-156l69 610h184l109 -330l25 -145h2l25 145l109 330h184l69 -610h-156z" />
    <glyph glyph-name="N" unicode="N" horiz-adv-x="700" 
d="M471 0l-192 288q-21 31 -38 62.5t-32 63.5h-2q3 -38 5 -75t2 -75v-264h-150v610h165l192 -288q21 -31 38 -62.5t32 -63.5h2q-3 38 -5 75t-2 75v264h150v-610h-165z" />
    <glyph glyph-name="O" unicode="O" horiz-adv-x="772" 
d="M732 304q0 -80 -28 -140t-75.5 -100.5t-110 -61t-132.5 -20.5t-132.5 20.5t-110 61t-75.5 100.5t-28 140q0 79 28 139.5t75.5 101t110 61t132.5 20.5t132.5 -20.5t110 -61t75.5 -101t28 -139.5zM386 102q90 0 136 51t46 151t-46 151t-136 51t-136 -51t-46 -151t46 -151
t136 -51z" />
    <glyph glyph-name="P" unicode="P" horiz-adv-x="582" 
d="M64 0v610h241q119 0 184 -47.5t65 -154.5t-64.5 -154.5t-184.5 -47.5h-85v-206h-156zM305 324q18 0 36 4.5t31.5 14.5t22 26t8.5 39q0 48 -27.5 66t-70.5 18h-87v-168h87z" />
    <glyph glyph-name="Q" unicode="Q" horiz-adv-x="772" 
d="M706 -168q-19 -2 -36.5 -3.5t-34.5 -1.5q-90 0 -153.5 37t-111.5 118q-67 2 -127 23.5t-105 62t-71.5 100t-26.5 136.5q0 79 28 139.5t75.5 101t110 61t132.5 20.5t132.5 -20.5t110 -61t75.5 -101t28 -139.5q0 -59 -17 -108t-46.5 -87.5t-70 -65.5t-87.5 -42
q20 -21 55.5 -33.5t77.5 -12.5q16 0 31 2t31 6v-131zM386 102q90 0 136 51t46 151t-46 151t-136 51t-136 -51t-46 -151t46 -151t136 -51z" />
    <glyph glyph-name="R" unicode="R" horiz-adv-x="606" 
d="M302 349q48 0 74.5 15.5t26.5 57.5t-26.5 56t-74.5 14h-85v-143h85zM428 0l-45 153q-11 38 -31.5 58t-66.5 20h-65v-231h-156v610h241q126 0 187.5 -46.5t61.5 -136.5q0 -64 -33.5 -99.5t-82.5 -51.5v-2q42 -11 65.5 -36.5t34.5 -63.5l52 -174h-162z" />
    <glyph glyph-name="S" unicode="S" horiz-adv-x="528" 
d="M34 157q19 -13 43.5 -23t51.5 -17t54.5 -11t53.5 -4q43 0 70 11t27 45q0 27 -21.5 45t-53.5 34t-69.5 32.5t-69.5 40.5t-53.5 58t-21.5 84q0 44 18 76.5t49.5 53.5t73.5 31.5t90 10.5q55 0 101 -9t77 -25v-126q-35 18 -77 30t-90 12q-38 0 -62 -12.5t-24 -38.5
q0 -24 21.5 -41t54 -33t70 -33.5t70 -42.5t54 -60.5t21.5 -86.5q0 -45 -20 -78t-54 -54t-78 -31.5t-92 -10.5q-33 0 -66 4.5t-61.5 11t-51 15t-35.5 17.5v125z" />
    <glyph glyph-name="T" unicode="T" horiz-adv-x="572" 
d="M208 0v490l-192 -2v122h540v-122l-192 2v-490h-156z" />
    <glyph glyph-name="U" unicode="U" horiz-adv-x="709" 
d="M493 610h156v-344q0 -151 -82 -218q-40 -33 -93.5 -47t-119.5 -14q-64 0 -118.5 14t-94.5 47q-81 66 -81 218v344h156v-333q0 -81 31 -123t107 -42t107.5 42t31.5 123v333z" />
    <glyph glyph-name="V" unicode="V" horiz-adv-x="656" 
d="M247 0l-241 610h168l97 -270l56 -208h2l56 208l97 270h168l-241 -610h-162z" />
    <glyph glyph-name="W" unicode="W" horiz-adv-x="980" 
d="M637 0l-100 291l-46 170h-2l-46 -170l-100 -291h-128l-205 610h158l84 -264l31 -158h2l40 158l93 264h144l93 -264l40 -158h2l31 158l84 264h158l-205 -610h-128z" />
    <glyph glyph-name="X" unicode="X" horiz-adv-x="688" 
d="M507 0l-163 216l-163 -216h-173l251 317l-231 293h173l143 -192l143 192h173l-232 -293l252 -317h-173z" />
    <glyph glyph-name="Y" unicode="Y" horiz-adv-x="622" 
d="M233 0v234l-229 376h161l91 -160l54 -108h2l54 108l91 160h161l-229 -376v-234h-156z" />
    <glyph glyph-name="Z" unicode="Z" horiz-adv-x="571" 
d="M34 0v108l307 386l-294 -2v118h471v-108l-307 -386l324 2v-118h-501z" />
    <glyph glyph-name="bracketleft" unicode="[" horiz-adv-x="344" 
d="M74 -136v798h240v-107h-99v-582h99v-109h-240z" />
    <glyph glyph-name="backslash" unicode="\" horiz-adv-x="496" 
d="M366 -40l-356 690h120l356 -690h-120z" />
    <glyph glyph-name="bracketright" unicode="]" horiz-adv-x="354" 
d="M40 -136v109h99v582h-99v107h240v-798h-240z" />
    <glyph glyph-name="asciicircum" unicode="^" horiz-adv-x="548" 
d="M375 252l-100 215l-101 -215h-144l182 358h124l182 -358h-143z" />
    <glyph glyph-name="underscore" unicode="_" horiz-adv-x="390" 
d="M0 -124v63h390v-63h-390z" />
    <glyph glyph-name="grave" unicode="`" horiz-adv-x="400" 
d="M171 512l-141 138h160l82 -138h-101z" />
    <glyph glyph-name="a" unicode="a" horiz-adv-x="525" 
d="M318 198q-11 2 -29.5 3.5t-32.5 1.5q-35 0 -60.5 -13.5t-25.5 -48.5q0 -29 19.5 -41t41.5 -12q30 0 51 11t36 32v67zM346 0l-14 56h-2q-15 -28 -54.5 -48.5t-93.5 -20.5q-67 0 -108.5 36.5t-41.5 105.5q0 45 19 75t49 48t67.5 25.5t73.5 7.5q16 0 38.5 -1.5t38.5 -3.5v14
q0 37 -24.5 52.5t-73.5 15.5q-33 0 -74 -9.5t-72 -25.5v106q30 14 77.5 23.5t95.5 9.5q43 0 83 -8t71 -29t49 -58.5t18 -97.5v-273h-122z" />
    <glyph glyph-name="b" unicode="b" horiz-adv-x="596" 
d="M62 0v650h154v-236h2q26 23 60.5 36.5t79.5 13.5q46 0 82.5 -17t62 -48t39.5 -73t14 -93q0 -60 -16.5 -106.5t-44 -78t-64.5 -48t-78 -16.5q-57 0 -95.5 21t-57.5 51h-2l-14 -56h-122zM216 133q14 -11 39 -24t56 -13q42 0 65.5 33t23.5 100q0 22 -4.5 44t-15 40
t-28.5 29.5t-45 11.5q-51 0 -91 -42v-179z" />
    <glyph glyph-name="c" unicode="c" horiz-adv-x="493" 
d="M455 18q-29 -18 -62.5 -27t-88.5 -9q-57 0 -105.5 16.5t-84.5 47.5t-56 76.5t-20 102.5q0 54 19.5 98t54 76t83 49.5t106.5 17.5q51 0 89 -10t59 -22v-110q-26 17 -55.5 27t-66.5 10q-64 0 -97.5 -34.5t-33.5 -101.5t35.5 -102.5t93.5 -35.5q38 0 67.5 9t62.5 30v-108z
" />
    <glyph glyph-name="d" unicode="d" horiz-adv-x="596" 
d="M412 0l-14 56h-2q-47 -72 -147 -72q-47 0 -85 15.5t-66 46t-43 76t-15 105.5q0 51 14.5 94.5t41.5 75.5t65.5 50.5t86.5 18.5q42 0 76.5 -13.5t53.5 -30.5h2v228h154v-650h-122zM380 326q-40 28 -89 28q-28 0 -46 -11.5t-29 -29.5t-15.5 -40t-4.5 -44q0 -67 24 -100.5
t67 -33.5q27 0 49 11t44 34v186z" />
    <glyph glyph-name="e" unicode="e" horiz-adv-x="550" 
d="M481 19q-38 -18 -84.5 -27.5t-95.5 -9.5q-68 0 -117.5 18t-82 51t-48 78.5t-15.5 99.5q0 52 16.5 95.5t48 75t77 49t104.5 17.5q57 0 100 -18t72 -47.5t43.5 -68.5t14.5 -81q0 -18 -1.5 -34t-6.5 -32h-323q2 -51 38 -75t103 -24q45 0 81.5 11t75.5 31v-109zM381 270
q-2 48 -27.5 73.5t-68.5 25.5q-45 0 -71.5 -26.5t-30.5 -72.5h198z" />
    <glyph glyph-name="f" unicode="f" horiz-adv-x="396" 
d="M92 0v346h-78v104h78v36q0 91 53 134.5t144 43.5q23 0 50.5 -3t52.5 -11v-109q-35 11 -63 11q-17 0 -32 -2t-26 -9t-18 -21t-7 -37v-33h132v-103h-132v-347h-154z" />
    <glyph glyph-name="g" unicode="g" horiz-adv-x="592" 
d="M381 42q-40 -55 -140 -55q-42 0 -78.5 15t-64.5 45t-44 75t-16 105q0 51 14.5 94t42 75t67 50t89.5 18q46 0 78.5 -17.5t55.5 -40.5h2l11 44h134v-464q0 -50 -17.5 -90t-50.5 -68t-81 -43.5t-109 -15.5q-52 0 -104 7t-97 27v123q42 -22 91 -33.5t86 -11.5q26 0 49.5 4.5
t41 16t27.5 32t10 52.5q0 12 0.5 23t4.5 33h-2zM378 322q-20 15 -42.5 23.5t-45.5 8.5q-28 0 -46.5 -11.5t-29.5 -29.5t-15.5 -40t-4.5 -44q0 -67 24 -99t67 -32q27 0 49 9.5t44 32.5v182z" />
    <glyph glyph-name="h" unicode="h" horiz-adv-x="595" 
d="M384 0v262q0 49 -20 67t-52 18q-30 0 -54.5 -9.5t-41.5 -20.5v-317h-154v650h154v-244q30 26 69 42t79 16q90 0 132 -48t42 -144v-272h-154z" />
    <glyph glyph-name="i" unicode="i" horiz-adv-x="280" 
d="M64 0v450h152v-450h-152zM235 581q0 -38 -23.5 -60.5t-71.5 -22.5t-71.5 22.5t-23.5 60.5t23.5 60.5t71.5 22.5t71.5 -22.5t23.5 -60.5z" />
    <glyph glyph-name="j" unicode="j" horiz-adv-x="288" 
d="M-55 -102q14 -5 27.5 -8t32.5 -3q33 0 50 16.5t17 63.5v483h152v-477q0 -45 -10 -82t-32 -63.5t-57.5 -40.5t-85.5 -14q-47 0 -94 16v109zM243 581q0 -38 -23.5 -60.5t-71.5 -22.5t-71.5 22.5t-23.5 60.5t23.5 60.5t71.5 22.5t71.5 -22.5t23.5 -60.5z" />
    <glyph glyph-name="k" unicode="k" horiz-adv-x="570" 
d="M393 0l-177 215v-215h-154v650h154v-395l174 195h166l-188 -205l198 -245h-173z" />
    <glyph glyph-name="l" unicode="l" horiz-adv-x="276" 
d="M62 0v650h152v-650h-152z" />
    <glyph glyph-name="m" unicode="m" horiz-adv-x="875" 
d="M664 0v257q0 52 -15.5 72t-46.5 20q-29 0 -51 -9t-38 -19q1 -8 1.5 -17t0.5 -18v-286h-152v257q0 52 -16 72t-47 20q-27 0 -48.5 -8t-37.5 -18v-323h-154v450h126l14 -56h1q26 32 66 51t85 19q51 0 86 -19.5t54 -55.5q28 34 72.5 54.5t89.5 20.5q164 0 164 -193v-271
h-154z" />
    <glyph glyph-name="n" unicode="n" horiz-adv-x="593" 
d="M382 0v262q0 49 -20 67t-52 18q-30 0 -54.5 -9.5t-41.5 -20.5v-317h-154v450h126l14 -56h2q31 32 73 51t87 19q90 0 132 -48t42 -144v-272h-154z" />
    <glyph glyph-name="o" unicode="o" horiz-adv-x="596" 
d="M558 224q0 -52 -17.5 -96t-50.5 -76.5t-81.5 -51t-110.5 -18.5t-110.5 18.5t-81.5 51t-50.5 76.5t-17.5 96t17.5 96t50.5 76.5t81.5 51t110.5 18.5t110.5 -18.5t81.5 -51t50.5 -76.5t17.5 -96zM298 89q48 0 75 34t27 101t-27 101t-75 34t-75 -34t-27 -101t27 -101t75 -34
z" />
    <glyph glyph-name="p" unicode="p" horiz-adv-x="594" 
d="M60 -215v665h136l12 -48h2q24 24 60 43t93 19q43 0 78.5 -17t60.5 -48t38.5 -73t13.5 -93q0 -60 -16.5 -106.5t-44 -78t-64.5 -48t-78 -16.5q-54 0 -89 18t-52 36h-2q3 -13 4.5 -28.5t1.5 -40.5v-184h-154zM214 133q14 -11 39 -24t56 -13q42 0 65.5 33t23.5 100
q0 22 -4.5 44t-15 40t-28.5 29.5t-45 11.5q-52 0 -91 -45v-176z" />
    <glyph glyph-name="q" unicode="q" horiz-adv-x="589" 
d="M373 -215v163q0 15 1.5 42.5t5.5 45.5h-2q-22 -25 -59.5 -38.5t-72.5 -13.5q-45 0 -83.5 15.5t-67 46t-44.5 76t-16 105.5q0 51 14.5 94.5t41 75.5t64.5 50.5t86 18.5t83.5 -17.5t59.5 -41.5h2l12 43h131v-665h-156zM375 320q-24 18 -45.5 26t-44.5 8q-27 0 -45.5 -11.5
t-29 -29.5t-15 -40t-4.5 -44q0 -67 24 -103t67 -36q27 0 49 9t44 32v189z" />
    <glyph glyph-name="r" unicode="r" horiz-adv-x="410" 
d="M60 0v450h121l24 -96h2q22 51 59.5 80t83.5 29q9 0 21 -1.5t23 -4.5v-143q-12 2 -24 3t-23 1q-40 0 -74.5 -15.5t-58.5 -39.5v-263h-154z" />
    <glyph glyph-name="s" unicode="s" horiz-adv-x="446" 
d="M37 114q32 -13 68.5 -21.5t67.5 -8.5q51 0 71 11t20 26q0 11 -9 18.5t-23 14t-32 12.5t-37 14q-22 10 -44.5 21t-41 27t-30 39t-11.5 57q0 29 13 55t37.5 45.5t60.5 30.5t82 11q45 0 86.5 -7t64.5 -16v-103q-30 14 -59.5 20.5t-60.5 6.5q-40 0 -61.5 -10t-21.5 -26
q0 -19 25 -29.5t60 -21.5q25 -8 51 -18.5t47 -27.5t34.5 -41.5t13.5 -60.5q0 -37 -16 -65t-44 -47t-64.5 -28.5t-77.5 -9.5q-57 0 -101.5 8t-67.5 18v106z" />
    <glyph glyph-name="t" unicode="t" horiz-adv-x="427" 
d="M399 6q-20 -10 -49 -16t-67 -6q-53 0 -89.5 11t-59 33t-32.5 54.5t-10 76.5v188h-78v103h82l46 142h104v-142h153v-103h-153v-182q0 -39 18 -53t49 -14q23 0 45.5 5t40.5 16v-113z" />
    <glyph glyph-name="u" unicode="u" horiz-adv-x="577" 
d="M394 0l-14 56h-2q-30 -33 -69 -51.5t-84 -18.5q-87 0 -126 48t-39 144v272h154v-262q0 -49 17 -67t49 -18q25 0 47 9.5t39 20.5v317h154v-450h-126z" />
    <glyph glyph-name="v" unicode="v" horiz-adv-x="516" 
d="M182 0l-174 450h156l52 -158l41 -172h2l41 172l52 158h156l-174 -450h-152z" />
    <glyph glyph-name="w" unicode="w" horiz-adv-x="752" 
d="M451 0l-41 157l-33 165h-2l-33 -165l-41 -157h-135l-154 450h148l44 -156l29 -158h2l33 157l44 157h128l44 -157l33 -157h2l29 158l44 156h148l-154 -450h-135z" />
    <glyph glyph-name="x" unicode="x" horiz-adv-x="532" 
d="M365 0l-99 144l-99 -144h-165l186 234l-170 216h161l87 -128l87 128h161l-171 -216l187 -234h-165z" />
    <glyph glyph-name="y" unicode="y" horiz-adv-x="533" 
d="M26 -107q19 -8 38 -10t36 -2q49 0 79 70l18 45l-189 454h152l103 -312h2l104 312h156l-228 -537q-31 -72 -69.5 -107t-104.5 -35q-26 0 -51.5 4t-45.5 11v107z" />
    <glyph glyph-name="z" unicode="z" horiz-adv-x="484" 
d="M34 0v94l239 254l-228 -2v104h390v-94l-240 -254l253 2v-104h-414z" />
    <glyph glyph-name="braceleft" unicode="{" horiz-adv-x="344" 
d="M314 -127q-15 -4 -32 -5t-32 -1q-32 0 -59 8.5t-47 26.5t-31.5 46.5t-11.5 69.5v116q0 45 -19.5 64t-51.5 24v92q32 5 51.5 24t19.5 64v116q0 40 11.5 69t31.5 47t47 26.5t59 8.5q15 0 32 -1t32 -5v-100q-11 5 -21 5.5t-18 0.5q-24 0 -37 -15.5t-13 -52.5v-107
q0 -58 -23.5 -86t-58.5 -40q35 -12 58.5 -40t23.5 -86v-107q0 -37 13 -52.5t37 -15.5q8 0 18 0.5t21 5.5v-100z" />
    <glyph glyph-name="bar" unicode="|" horiz-adv-x="270" 
d="M72 -215v865h126v-865h-126z" />
    <glyph glyph-name="braceright" unicode="}" horiz-adv-x="344" 
d="M30 -27q11 -5 21 -5.5t18 -0.5q24 0 37 15.5t13 52.5v107q0 58 23.5 86t58.5 40q-35 12 -58.5 40t-23.5 86v107q0 37 -13 52.5t-37 15.5q-8 0 -18 -0.5t-21 -5.5v100q15 4 32 5t32 1q31 0 58.5 -8.5t47.5 -26.5t31.5 -47t11.5 -69v-116q0 -45 19.5 -64t51.5 -24v-92
q-32 -5 -51.5 -24t-19.5 -64v-116q0 -41 -11.5 -69.5t-31.5 -46.5t-47.5 -26.5t-58.5 -8.5q-15 0 -32 1t-32 5v100z" />
    <glyph glyph-name="asciitilde" unicode="~" horiz-adv-x="470" 
d="M430 226q-57 -48 -109 -48q-28 0 -49.5 10t-41 22t-39 22t-44.5 10q-31 0 -54.5 -15t-52.5 -42v140q19 16 45 32t63 16q28 0 50 -10t41.5 -22t39 -22t44.5 -10q51 0 107 57v-140z" />
    <glyph glyph-name="uni007F" horiz-adv-x="450" 
 />
    <glyph glyph-name="nonbreakingspace" unicode="&#xa0;" horiz-adv-x="259" 
 />
    <glyph glyph-name="exclamdown" unicode="&#xa1;" horiz-adv-x="312" 
d="M157 272q-40 0 -68.5 27t-28.5 69q0 20 7.5 37.5t21 30.5t31 20.5t37.5 7.5q40 0 67.5 -27t27.5 -69q0 -19 -7.5 -36t-20 -30.5t-30 -21.5t-37.5 -8zM68 -159l21 380h134l21 -380h-176z" />
    <glyph glyph-name="cent" unicode="&#xa2;" horiz-adv-x="652" 
d="M361 -100v83q-56 4 -103 22t-81.5 49t-54 74t-19.5 97q0 51 19 93.5t53 74t81.5 50.5t104.5 22v85h80v-87q38 -4 67.5 -12t45.5 -17v-110q-26 17 -61.5 27t-80.5 10q-72 0 -111.5 -34.5t-39.5 -101.5t41.5 -102.5t107.5 -35.5q46 0 81.5 9t68.5 30v-108
q-23 -14 -51 -22.5t-68 -11.5v-84h-80z" />
    <glyph glyph-name="sterling" unicode="&#xa3;" horiz-adv-x="652" 
d="M90 0v123h7q40 0 58.5 23.5t18.5 88.5v68h-83v71h83v26q0 66 19.5 110t52.5 69.5t77.5 36t94.5 10.5q32 0 67.5 -7t60.5 -15v-115q-6 2 -16.5 5t-23 6t-26.5 5.5t-27 2.5q-28 0 -51 -3.5t-39.5 -14t-25.5 -30.5t-9 -53v-33h134v-70h-134v-61q0 -26 -5 -44.5t-13.5 -32.5
t-21 -24t-27.5 -19h315v-123h-486z" />
    <glyph glyph-name="currency" unicode="&#xa4;" horiz-adv-x="574" 
d="M461 64l-65 65q-16 -8 -28.5 -14t-25 -9.5t-26 -5.5t-29.5 -2q-33 0 -55.5 7.5t-53.5 23.5l-65 -65l-73 72l66 64q-30 51 -30 109q0 55 30 109l-66 65l73 73l65 -67q52 31 109 31t109 -31l65 67l73 -73l-66 -65q30 -54 30 -109q0 -58 -30 -109l66 -64zM287 195
q25 0 45.5 9t35 25t22.5 36.5t8 43.5t-8 44t-22.5 36.5t-35 25t-45.5 9.5t-45.5 -9.5t-35 -25t-22.5 -36.5t-8 -44t8 -43.5t22.5 -36.5t35 -25t45.5 -9z" />
    <glyph glyph-name="yen" unicode="&#xa5;" horiz-adv-x="652" 
d="M404 131v-131h-156v131h-153v74h153v51h-153v74h102l-166 280h161l79 -160l54 -118h2l54 118l79 160h161l-166 -280h102v-74h-153v-51h153v-74h-153z" />
    <glyph glyph-name="brokenbar" unicode="&#xa6;" horiz-adv-x="286" 
d="M80 296v354h126v-354h-126zM80 -215v354h126v-354h-126z" />
    <glyph glyph-name="section" unicode="&#xa7;" horiz-adv-x="652" 
d="M124 -76q29 -19 71.5 -29t84.5 -10q16 0 34 3.5t33 9.5t25 15t10 20q0 22 -22 38t-54.5 31.5t-71 33t-71 42.5t-54.5 59.5t-22 84.5q0 55 26.5 96t64.5 67q-23 21 -36.5 49t-13.5 70q0 40 18.5 70t48.5 49.5t68.5 29.5t77.5 10q24 0 49 -2t48 -5.5t43 -9.5t34 -14v-120
q-15 9 -34 16.5t-41 12.5t-44 7.5t-43 2.5q-16 0 -32 -3.5t-29.5 -9.5t-22 -15t-8.5 -20q0 -22 22 -38t54.5 -31t71 -32.5t71 -42t54.5 -59t22 -84.5q0 -57 -27 -97.5t-65 -66.5q23 -21 37 -49.5t14 -70.5q0 -40 -20 -70t-52 -49.5t-72 -29.5t-79 -10q-48 0 -94 7.5
t-74 23.5v120zM361 114q22 15 41.5 39t19.5 56q0 22 -12 38.5t-31.5 29.5t-44.5 24t-52 23q-22 -15 -41.5 -39t-19.5 -56q0 -23 12 -39.5t31.5 -29.5t44.5 -24t52 -23v1z" />
    <glyph glyph-name="dieresis" unicode="&#xa8;" horiz-adv-x="400" 
d="M162 581q0 -34 -19.5 -54t-61.5 -20t-61.5 20t-19.5 54t19.5 54t61.5 20t61.5 -20t19.5 -54zM400 581q0 -34 -19.5 -54t-61.5 -20t-61.5 20t-19.5 54t19.5 54t61.5 20t61.5 -20t19.5 -54z" />
    <glyph glyph-name="copyright" unicode="&#xa9;" horiz-adv-x="731" 
d="M513 141q-24 -15 -52.5 -22t-68.5 -7q-46 0 -85 13.5t-67.5 38.5t-44.5 60t-16 79q0 42 15.5 77t43 60.5t66 39.5t85.5 14q40 0 71 -7.5t48 -18.5v-96q-20 15 -44 23.5t-54 8.5q-48 0 -76.5 -25t-28.5 -76t29.5 -76t74.5 -25q31 0 54.5 8.5t49.5 26.5v-96zM685 303
q0 -67 -24.5 -124t-68 -99t-102 -65.5t-125.5 -23.5q-68 0 -126.5 23.5t-101 65.5t-67 99t-24.5 124t24.5 124t67 99t101 66t126.5 24q69 0 127.5 -24t101.5 -66t67 -99t24 -124zM627 303q0 54 -18.5 102t-53 84t-82.5 57t-108 21q-58 0 -106 -21t-82.5 -57t-53.5 -84
t-19 -102t19 -102t53.5 -83.5t82.5 -56t106 -20.5t106 20.5t82.5 56t54 83.5t19.5 102z" />
    <glyph glyph-name="ordfeminine" unicode="&#xaa;" horiz-adv-x="420" 
d="M244 428q-8 3 -18.5 4t-20.5 1q-23 0 -38.5 -11.5t-15.5 -32.5q0 -17 13 -25.5t23 -8.5q36 0 57 30v43zM265 280l-11 40h-2q-11 -21 -38.5 -35.5t-70.5 -14.5q-57 0 -87 29t-30 80q0 34 13.5 56.5t35.5 36t49.5 19t55.5 5.5q22 0 38 -1t26 -3v11q0 22 -14.5 30.5
t-51.5 8.5q-9 0 -24 -2t-32.5 -5t-34.5 -8t-30 -11v85q11 5 28.5 9t37 7t38 4.5t32.5 1.5q34 0 67 -5.5t59 -21t41.5 -43t15.5 -71.5v-202h-111z" />
    <glyph glyph-name="guillemotleft" unicode="&#xab;" horiz-adv-x="580" 
d="M156 55l-138 221l138 221h147l-138 -221l138 -221h-147zM401 55l-138 221l138 221h147l-138 -221l138 -221h-147z" />
    <glyph glyph-name="logicalnot" unicode="&#xac;" horiz-adv-x="565" 
d="M406 155v197h-356v111h475v-308h-119z" />
    <glyph glyph-name="hypen" unicode="&#xad;" horiz-adv-x="353" 
d="M30 235v131h293v-131h-293z" />
    <glyph glyph-name="registered" unicode="&#xae;" horiz-adv-x="731" 
d="M685 303q0 -67 -24.5 -124t-68 -99t-102 -65.5t-125.5 -23.5q-68 0 -126.5 23.5t-101 65.5t-67 99t-24.5 124t24.5 124t67 99t101 66t126.5 24q69 0 127.5 -24t101.5 -66t67 -99t24 -124zM627 303q0 54 -18.5 102t-53 84t-82.5 57t-108 21q-58 0 -106 -21t-82.5 -57
t-53.5 -84t-19 -102t19 -102t53.5 -83.5t82.5 -56t106 -20.5t106 20.5t82.5 56t54 83.5t19.5 102zM347 332q56 0 56 42q0 23 -13.5 32t-42.5 9h-24v-83h24zM422 125l-33 94q-6 16 -12.5 27.5t-28.5 11.5h-25v-133h-107v364h143q76 0 115 -28t39 -82q0 -38 -20.5 -60
t-49.5 -31q23 -7 35.5 -22.5t20.5 -36.5l41 -104h-118z" />
    <glyph glyph-name="macron" unicode="&#xaf;" horiz-adv-x="400" 
d="M41 538v94h318v-94h-318z" />
    <glyph glyph-name="degree" unicode="&#xb0;" horiz-adv-x="328" 
d="M298 540q0 -27 -10.5 -50.5t-28.5 -41t-42.5 -27t-52.5 -9.5t-52.5 9.5t-42.5 27t-28.5 41t-10.5 50.5q0 26 10.5 49t28.5 40t42.5 27t52.5 10t52.5 -10t42.5 -27t28.5 -40t10.5 -49zM164 482q24 0 38.5 17t14.5 40q0 22 -14.5 39.5t-38.5 17.5t-38.5 -17.5t-14.5 -39.5
q0 -23 14.5 -40t38.5 -17z" />
    <glyph glyph-name="plusminus" unicode="&#xb1;" horiz-adv-x="548" 
d="M209 118v181h-171v110h171v181h130v-181h171v-110h-171v-181h-130zM38 0v90h472v-90h-472z" />
    <glyph glyph-name="twosuperior" unicode="&#xb2;" horiz-adv-x="382" 
d="M38 287v87q91 51 135 92t44 76q0 38 -58 38q-28 0 -58.5 -7.5t-60.5 -20.5v87q22 8 55.5 15.5t73.5 7.5q47 0 78.5 -9.5t50 -25t26.5 -37t8 -45.5q0 -28 -12.5 -52.5t-33.5 -45.5t-48 -38.5t-57 -31.5h161v-90h-304z" />
    <glyph glyph-name="threesuperior" unicode="&#xb3;" horiz-adv-x="383" 
d="M271 479q21 -2 35 -9.5t22.5 -19t12.5 -24.5t4 -26q0 -63 -47 -92t-138 -29q-46 0 -81 7t-49 14v89q9 -5 23 -9t30 -7t31 -4.5t26 -1.5q19 0 37 1.5t31.5 6t21.5 12.5t8 21q0 14 -9 21t-24.5 10t-38 2.5t-49.5 -1.5v71h44.5t35 3t22.5 10.5t8 22.5q0 17 -18.5 24.5
t-63.5 7.5q-11 0 -24.5 -1t-28.5 -4t-29.5 -7t-26.5 -10v85q9 4 22.5 7.5t30.5 6.5t36 4.5t37 1.5q81 0 126 -23t45 -74q0 -64 -62 -84v-2z" />
    <glyph glyph-name="acute" unicode="&#xb4;" horiz-adv-x="400" 
d="M229 512h-101l82 138h160z" />
    <glyph glyph-name="mu" unicode="&#xb5;" horiz-adv-x="577" 
d="M60 -215v665h154v-317q17 -11 39 -20.5t47 -9.5q32 0 49 18t17 67v262h154v-272q0 -96 -39 -144t-126 -48q-45 0 -80.5 16t-62.5 45h-2q2 -18 3 -38.5t1 -40.5v-183h-154z" />
    <glyph glyph-name="paragraph" unicode="&#xb6;" horiz-adv-x="601" 
d="M443 -215v773h-80v-773h-90v391h-2q-52 0 -97.5 18.5t-79 51t-53 75.5t-19.5 92t19.5 92t53 75.5t79 51t97.5 18.5h262v-865h-90z" />
    <glyph glyph-name="periodcentered" unicode="&#xb7;" horiz-adv-x="280" 
d="M141 194q-20 0 -37.5 7.5t-31 20.5t-21 30.5t-7.5 37.5q0 42 28.5 69t68.5 27q20 0 37.5 -8t30 -21.5t20 -30.5t7.5 -36q0 -42 -27.5 -69t-67.5 -27z" />
    <glyph glyph-name="cedilla" unicode="&#xb8;" horiz-adv-x="400" 
d="M128 -147q8 -2 21 -2.5t21 -0.5q24 0 45 7.5t21 24.5q0 10 -7.5 16t-19.5 9.5t-26.5 5t-28.5 1.5l22 93l62 -6l-4 -51q40 -2 69.5 -20.5t29.5 -58.5q0 -29 -12 -47.5t-31.5 -30t-45 -16t-51.5 -4.5q-35 0 -65 6v74z" />
    <glyph glyph-name="onesuperior" unicode="&#xb9;" horiz-adv-x="284" 
d="M129 287v243q-20 -23 -48 -35t-67 -11v104q31 -2 53 4.5t38 17t26 22.5t16 22h93v-367h-111z" />
    <glyph glyph-name="ordmasculine" unicode="&#xba;" horiz-adv-x="428" 
d="M408 447q0 -78 -49 -127.5t-145 -49.5t-145 49.5t-49 127.5q0 38 12.5 70.5t37 56t60.5 36.5t84 13t84.5 -13t60.5 -36.5t36.5 -56t12.5 -70.5zM214 347q55 0 55 100t-55 100t-55 -100t55 -100z" />
    <glyph glyph-name="guillemotright" unicode="&#xbb;" horiz-adv-x="580" 
d="M32 55l138 221l-138 221h147l138 -221l-138 -221h-147zM277 55l138 221l-138 221h147l138 -221l-138 -221h-147z" />
    <glyph glyph-name="onequarter" unicode="&#xbc;" horiz-adv-x="852" 
d="M249 0h-101l456 610h100zM629 0v66h-196v57l211 244h96v-227h60v-74h-60v-66h-111zM629 243l-87 -103h87v103zM159 244v243q-20 -23 -48 -35t-67 -11v104q31 -2 53 4.5t38 17t26 22.5t16 22h93v-367h-111z" />
    <glyph glyph-name="onehalf" unicode="&#xbd;" horiz-adv-x="852" 
d="M239 0h-101l456 610h100zM159 244v243q-20 -23 -48 -35t-67 -11v104q31 -2 53 4.5t38 17t26 22.5t16 22h93v-367h-111zM519 0v87q91 51 135 92t44 76q0 38 -58 38q-28 0 -58.5 -7.5t-60.5 -20.5v87q22 8 55.5 15.5t73.5 7.5q47 0 78.5 -9.5t50 -25t26.5 -37t8 -45.5
q0 -28 -12.5 -52.5t-33.5 -45.5t-48 -38.5t-57 -31.5h161v-90h-304z" />
    <glyph glyph-name="threequarters" unicode="&#xbe;" horiz-adv-x="852" 
d="M269 0h-101l456 610h100zM629 0v66h-196v57l211 244h96v-227h60v-74h-60v-66h-111zM629 243l-87 -103h87v103zM273 439q21 -2 35 -9.5t22.5 -19t12.5 -24.5t4 -26q0 -63 -47 -92t-138 -29q-46 0 -81 7t-49 14v89q9 -5 23 -9t30 -7t31 -4.5t26 -1.5q19 0 37 1.5t31.5 6
t21.5 12.5t8 21q0 14 -9 21t-24.5 10t-38 2.5t-49.5 -1.5v71h44.5t35 3t22.5 10.5t8 22.5q0 17 -18.5 24.5t-63.5 7.5q-11 0 -24.5 -1t-28.5 -4t-29.5 -7t-26.5 -10v85q9 4 22.5 7.5t30.5 6.5t36 4.5t37 1.5q81 0 126 -23t45 -74q0 -64 -62 -84v-2z" />
    <glyph glyph-name="questiondown" unicode="&#xbf;" horiz-adv-x="453" 
d="M423 -136q-30 -16 -73 -27.5t-106 -11.5q-39 0 -75 8t-64.5 26.5t-45.5 49.5t-17 77q0 34 15.5 67.5t39 64t50.5 57t50 46.5h134q-28 -27 -53 -54.5t-44 -54.5t-30 -54t-11 -52q0 -69 84 -69q33 0 74 8.5t72 23.5v-105zM363 368q0 -42 -28.5 -69t-68.5 -27q-20 0 -37.5 8
t-30.5 21.5t-20 30.5t-7 36q0 42 27.5 69t67.5 27q20 0 37.5 -7.5t31 -20.5t21 -30.5t7.5 -37.5z" />
    <glyph glyph-name="Agrave" unicode="&#xc0;" horiz-adv-x="684" 
d="M377 368l-34 118h-2l-34 -118l-43 -120h156zM519 0l-50 130h-253l-51 -130h-163l251 610h178l251 -610h-163zM312 672l-141 138h160l82 -138h-101z" />
    <glyph glyph-name="Aacute" unicode="&#xc1;" horiz-adv-x="684" 
d="M377 368l-34 118h-2l-34 -118l-43 -120h156zM519 0l-50 130h-253l-51 -130h-163l251 610h178l251 -610h-163zM372 672h-101l82 138h160z" />
    <glyph glyph-name="Acircumflex" unicode="&#xc2;" horiz-adv-x="684" 
d="M377 368l-34 118h-2l-34 -118l-43 -120h156zM519 0l-50 130h-253l-51 -130h-163l251 610h178l251 -610h-163zM407 672l-65 57l-65 -57h-99l118 138h92l118 -138h-99z" />
    <glyph glyph-name="Atilde" unicode="&#xc3;" horiz-adv-x="684" 
d="M377 368l-34 118h-2l-34 -118l-43 -120h156zM519 0l-50 130h-253l-51 -130h-163l251 610h178l251 -610h-163zM501 803q1 -24 -2.5 -47.5t-14 -41.5t-29 -29t-46.5 -11q-21 0 -37 6.5t-30 15t-27.5 15t-28.5 6.5q-27 0 -24 -38h-79q-2 27 2 50.5t15 41t29 27.5t44 10
q21 0 37.5 -6.5t30.5 -15t27.5 -15t29.5 -6.5q11 0 19 7.5t5 30.5h79z" />
    <glyph glyph-name="Adieresis" unicode="&#xc4;" horiz-adv-x="684" 
d="M377 368l-34 118h-2l-34 -118l-43 -120h156zM519 0l-50 130h-253l-51 -130h-163l251 610h178l251 -610h-163zM304 741q0 -34 -19.5 -54t-61.5 -20t-61.5 20t-19.5 54t19.5 54t61.5 20t61.5 -20t19.5 -54zM542 741q0 -34 -19.5 -54t-61.5 -20t-61.5 20t-19.5 54t19.5 54
t61.5 20t61.5 -20t19.5 -54z" />
    <glyph glyph-name="Aring" unicode="&#xc5;" horiz-adv-x="684" 
d="M377 368l-34 118h-2l-34 -118l-43 -120h156zM519 0l-50 130h-253l-51 -130h-163l251 610h178l251 -610h-163zM457 741q0 -22 -9 -40t-25 -31t-36.5 -20t-44.5 -7t-44.5 7t-36.5 20t-25 31t-9 40t9 40t25 31t36.5 20t44.5 7t44.5 -7t36.5 -20t25 -31t9 -40zM382 741
q0 17 -11.5 27.5t-28.5 10.5t-28.5 -10.5t-11.5 -27.5t11.5 -27.5t28.5 -10.5t28.5 10.5t11.5 27.5z" />
    <glyph glyph-name="AE" unicode="&#xc6;" horiz-adv-x="909" 
d="M451 0v130h-205l-76 -130h-164l380 610h481v-122h-262v-116h238v-119h-238v-131h262v-122h-416zM451 482l-138 -236h138v236z" />
    <glyph glyph-name="Ccedilla" unicode="&#xc7;" horiz-adv-x="634" 
d="M594 26q-21 -14 -63.5 -27t-108.5 -16l-2 -33q40 -2 69.5 -20.5t29.5 -58.5q0 -29 -12 -47.5t-31.5 -30t-45 -16t-51.5 -4.5q-35 0 -65 6v74q8 -2 21 -2.5t21 -0.5q24 0 45 7.5t21 24.5q0 10 -7.5 16t-19.5 9.5t-26.5 5t-28.5 1.5l16 70q-65 5 -122 27t-100.5 61.5
t-68.5 98t-25 135.5t28.5 137t77.5 100.5t114 61.5t137 21q69 0 115 -11t75 -24v-133q-34 22 -76.5 35t-99.5 13q-97 0 -152 -53t-55 -147q0 -49 16 -87t44.5 -64t67.5 -39.5t86 -13.5q49 0 94 13.5t82 41.5v-131z" />
    <glyph glyph-name="Egrave" unicode="&#xc8;" horiz-adv-x="532" 
d="M64 0v610h426v-122h-272v-116h248v-119h-248v-131h272v-122h-426zM246 672l-141 138h160l82 -138h-101z" />
    <glyph glyph-name="Eacute" unicode="&#xc9;" horiz-adv-x="532" 
d="M64 0v610h426v-122h-272v-116h248v-119h-248v-131h272v-122h-426zM296 672h-101l82 138h160z" />
    <glyph glyph-name="Ecircumflex" unicode="&#xca;" horiz-adv-x="532" 
d="M64 0v610h426v-122h-272v-116h248v-119h-248v-131h272v-122h-426zM331 672l-65 57l-65 -57h-99l118 138h92l118 -138h-99z" />
    <glyph glyph-name="Edieresis" unicode="&#xcb;" horiz-adv-x="532" 
d="M64 0v610h426v-122h-272v-116h248v-119h-248v-131h272v-122h-426zM238 741q0 -34 -19.5 -54t-61.5 -20t-61.5 20t-19.5 54t19.5 54t61.5 20t61.5 -20t19.5 -54zM476 741q0 -34 -19.5 -54t-61.5 -20t-61.5 20t-19.5 54t19.5 54t61.5 20t61.5 -20t19.5 -54z" />
    <glyph glyph-name="Igrave" unicode="&#xcc;" horiz-adv-x="288" 
d="M66 0v610h156v-610h-156zM116 672l-141 138h160l82 -138h-101z" />
    <glyph glyph-name="Iacute" unicode="&#xcd;" horiz-adv-x="288" 
d="M66 0v610h156v-610h-156zM176 672h-101l82 138h160z" />
    <glyph glyph-name="Icircumflex" unicode="&#xce;" horiz-adv-x="288" 
d="M66 0v610h156v-610h-156zM211 672l-65 57l-65 -57h-99l118 138h92l118 -138h-99z" />
    <glyph glyph-name="Idieresis" unicode="&#xcf;" horiz-adv-x="288" 
d="M66 0v610h156v-610h-156zM108 741q0 -34 -19.5 -54t-61.5 -20t-61.5 20t-19.5 54t19.5 54t61.5 20t61.5 -20t19.5 -54zM346 741q0 -34 -19.5 -54t-61.5 -20t-61.5 20t-19.5 54t19.5 54t61.5 20t61.5 -20t19.5 -54z" />
    <glyph glyph-name="Eth" unicode="&#xd0;" horiz-adv-x="675" 
d="M64 0v263h-54v94h54v253h248q69 0 128 -17.5t102.5 -54t68 -92.5t24.5 -132q0 -83 -24 -142.5t-67.5 -97.5t-103 -56t-131.5 -18h-245zM307 122q94 0 132 46.5t38 145.5q0 93 -41 133.5t-126 40.5h-90v-131h128v-94h-128v-141h87z" />
    <glyph glyph-name="Ntilde" unicode="&#xd1;" horiz-adv-x="700" 
d="M471 0l-192 288q-21 31 -38 62.5t-32 63.5h-2q3 -38 5 -75t2 -75v-264h-150v610h165l192 -288q21 -31 38 -62.5t32 -63.5h2q-3 38 -5 75t-2 75v264h150v-610h-165zM509 803q1 -24 -2.5 -47.5t-14 -41.5t-29 -29t-46.5 -11q-21 0 -37 6.5t-30 15t-27.5 15t-28.5 6.5
q-27 0 -24 -38h-79q-2 27 2 50.5t15 41t29 27.5t44 10q21 0 37.5 -6.5t30.5 -15t27.5 -15t29.5 -6.5q11 0 19 7.5t5 30.5h79z" />
    <glyph glyph-name="Ograve" unicode="&#xd2;" horiz-adv-x="772" 
d="M732 304q0 -80 -28 -140t-75.5 -100.5t-110 -61t-132.5 -20.5t-132.5 20.5t-110 61t-75.5 100.5t-28 140q0 79 28 139.5t75.5 101t110 61t132.5 20.5t132.5 -20.5t110 -61t75.5 -101t28 -139.5zM386 102q90 0 136 51t46 151t-46 151t-136 51t-136 -51t-46 -151t46 -151
t136 -51zM356 672l-141 138h160l82 -138h-101z" />
    <glyph glyph-name="Oacute" unicode="&#xd3;" horiz-adv-x="772" 
d="M732 304q0 -80 -28 -140t-75.5 -100.5t-110 -61t-132.5 -20.5t-132.5 20.5t-110 61t-75.5 100.5t-28 140q0 79 28 139.5t75.5 101t110 61t132.5 20.5t132.5 -20.5t110 -61t75.5 -101t28 -139.5zM386 102q90 0 136 51t46 151t-46 151t-136 51t-136 -51t-46 -151t46 -151
t136 -51zM416 672h-101l82 138h160z" />
    <glyph glyph-name="Ocircumflex" unicode="&#xd4;" horiz-adv-x="772" 
d="M732 304q0 -80 -28 -140t-75.5 -100.5t-110 -61t-132.5 -20.5t-132.5 20.5t-110 61t-75.5 100.5t-28 140q0 79 28 139.5t75.5 101t110 61t132.5 20.5t132.5 -20.5t110 -61t75.5 -101t28 -139.5zM386 102q90 0 136 51t46 151t-46 151t-136 51t-136 -51t-46 -151t46 -151
t136 -51zM451 672l-65 57l-65 -57h-99l118 138h92l118 -138h-99z" />
    <glyph glyph-name="Otilde" unicode="&#xd5;" horiz-adv-x="772" 
d="M732 304q0 -80 -28 -140t-75.5 -100.5t-110 -61t-132.5 -20.5t-132.5 20.5t-110 61t-75.5 100.5t-28 140q0 79 28 139.5t75.5 101t110 61t132.5 20.5t132.5 -20.5t110 -61t75.5 -101t28 -139.5zM386 102q90 0 136 51t46 151t-46 151t-136 51t-136 -51t-46 -151t46 -151
t136 -51zM545 803q1 -24 -2.5 -47.5t-14 -41.5t-29 -29t-46.5 -11q-21 0 -37 6.5t-30 15t-27.5 15t-28.5 6.5q-27 0 -24 -38h-79q-2 27 2 50.5t15 41t29 27.5t44 10q21 0 37.5 -6.5t30.5 -15t27.5 -15t29.5 -6.5q11 0 19 7.5t5 30.5h79z" />
    <glyph glyph-name="Odieresis" unicode="&#xd6;" horiz-adv-x="772" 
d="M732 304q0 -80 -28 -140t-75.5 -100.5t-110 -61t-132.5 -20.5t-132.5 20.5t-110 61t-75.5 100.5t-28 140q0 79 28 139.5t75.5 101t110 61t132.5 20.5t132.5 -20.5t110 -61t75.5 -101t28 -139.5zM386 102q90 0 136 51t46 151t-46 151t-136 51t-136 -51t-46 -151t46 -151
t136 -51zM348 741q0 -34 -19.5 -54t-61.5 -20t-61.5 20t-19.5 54t19.5 54t61.5 20t61.5 -20t19.5 -54zM586 741q0 -34 -19.5 -54t-61.5 -20t-61.5 20t-19.5 54t19.5 54t61.5 20t61.5 -20t19.5 -54z" />
    <glyph glyph-name="multiply" unicode="&#xd7;" horiz-adv-x="548" 
d="M274 226l-138 -138l-88 88l138 138l-138 138l88 88l138 -138l138 138l88 -88l-138 -138l138 -138l-88 -88z" />
    <glyph glyph-name="Oslash" unicode="&#xd8;" horiz-adv-x="772" 
d="M70 -18l69 85q-46 42 -72.5 100.5t-26.5 136.5q0 79 28 139.5t75.5 101t110 61t132.5 20.5q99 0 178 -40l33 40h105l-70 -85q46 -42 73 -100.5t27 -136.5q0 -80 -28 -140t-75.5 -100.5t-110 -61t-132.5 -20.5q-100 0 -179 39l-32 -39h-105zM290 123q39 -21 96 -21
q90 0 136 51t46 151q0 75 -28 124zM481 485q-39 21 -95 21q-90 0 -136 -51t-46 -151q0 -78 28 -124z" />
    <glyph glyph-name="Ugrave" unicode="&#xd9;" horiz-adv-x="709" 
d="M493 610h156v-344q0 -151 -82 -218q-40 -33 -93.5 -47t-119.5 -14q-64 0 -118.5 14t-94.5 47q-81 66 -81 218v344h156v-333q0 -81 31 -123t107 -42t107.5 42t31.5 123v333zM324 672l-141 138h160l82 -138h-101z" />
    <glyph glyph-name="Uacute" unicode="&#xda;" horiz-adv-x="709" 
d="M493 610h156v-344q0 -151 -82 -218q-40 -33 -93.5 -47t-119.5 -14q-64 0 -118.5 14t-94.5 47q-81 66 -81 218v344h156v-333q0 -81 31 -123t107 -42t107.5 42t31.5 123v333zM384 672h-101l82 138h160z" />
    <glyph glyph-name="Ucircumflex" unicode="&#xdb;" horiz-adv-x="709" 
d="M493 610h156v-344q0 -151 -82 -218q-40 -33 -93.5 -47t-119.5 -14q-64 0 -118.5 14t-94.5 47q-81 66 -81 218v344h156v-333q0 -81 31 -123t107 -42t107.5 42t31.5 123v333zM419 672l-65 57l-65 -57h-99l118 138h92l118 -138h-99z" />
    <glyph glyph-name="Udieresis" unicode="&#xdc;" horiz-adv-x="709" 
d="M493 610h156v-344q0 -151 -82 -218q-40 -33 -93.5 -47t-119.5 -14q-64 0 -118.5 14t-94.5 47q-81 66 -81 218v344h156v-333q0 -81 31 -123t107 -42t107.5 42t31.5 123v333zM316 741q0 -34 -19.5 -54t-61.5 -20t-61.5 20t-19.5 54t19.5 54t61.5 20t61.5 -20t19.5 -54z
M554 741q0 -34 -19.5 -54t-61.5 -20t-61.5 20t-19.5 54t19.5 54t61.5 20t61.5 -20t19.5 -54z" />
    <glyph glyph-name="Yacute" unicode="&#xdd;" horiz-adv-x="622" 
d="M233 0v234l-229 376h161l91 -160l54 -108h2l54 108l91 160h161l-229 -376v-234h-156zM341 672h-101l82 138h160z" />
    <glyph glyph-name="Thorn" unicode="&#xde;" horiz-adv-x="586" 
d="M64 0v610h154v-100h87q119 0 184 -46t65 -152t-64.5 -152t-184.5 -46h-85v-114h-156zM307 232q18 0 36 4t31.5 13t22 24.5t8.5 38.5q0 48 -27.5 64t-70.5 16h-89v-160h89z" />
    <glyph glyph-name="germandbls" unicode="&#xdf;" horiz-adv-x="620" 
d="M292 113q5 -3 15 -7t22.5 -7t26.5 -5.5t27 -2.5q21 0 36.5 7t15.5 26q0 16 -10.5 29t-26 26t-33.5 27t-33.5 32t-26 41.5t-10.5 55.5q0 26 8 45t19.5 32.5t25.5 23.5t25.5 19.5t19.5 20.5t8 26q0 25 -21 37.5t-55 12.5q-32 0 -53 -9.5t-34 -25t-18.5 -35.5t-5.5 -41v-441
h-152v448q0 48 16.5 88t48.5 68.5t79.5 44t109.5 15.5q52 0 95.5 -9t75 -29t48.5 -52t17 -78q0 -38 -19 -60t-41.5 -37t-41.5 -29t-19 -36q0 -16 11.5 -28.5t28.5 -24.5t37.5 -25.5t37.5 -30.5t28.5 -39.5t11.5 -53.5q0 -37 -14 -64t-38 -45t-55.5 -27t-65.5 -9
q-30 0 -61 5.5t-60 18.5v102z" />
    <glyph glyph-name="agrave" unicode="&#xe0;" horiz-adv-x="525" 
d="M318 198q-11 2 -29.5 3.5t-32.5 1.5q-35 0 -60.5 -13.5t-25.5 -48.5q0 -29 19.5 -41t41.5 -12q30 0 51 11t36 32v67zM346 0l-14 56h-2q-15 -28 -54.5 -48.5t-93.5 -20.5q-67 0 -108.5 36.5t-41.5 105.5q0 45 19 75t49 48t67.5 25.5t73.5 7.5q16 0 38.5 -1.5t38.5 -3.5v14
q0 37 -24.5 52.5t-73.5 15.5q-33 0 -74 -9.5t-72 -25.5v106q30 14 77.5 23.5t95.5 9.5q43 0 83 -8t71 -29t49 -58.5t18 -97.5v-273h-122zM252 512l-141 138h160l82 -138h-101z" />
    <glyph glyph-name="aacute" unicode="&#xe1;" horiz-adv-x="525" 
d="M318 198q-11 2 -29.5 3.5t-32.5 1.5q-35 0 -60.5 -13.5t-25.5 -48.5q0 -29 19.5 -41t41.5 -12q30 0 51 11t36 32v67zM346 0l-14 56h-2q-15 -28 -54.5 -48.5t-93.5 -20.5q-67 0 -108.5 36.5t-41.5 105.5q0 45 19 75t49 48t67.5 25.5t73.5 7.5q16 0 38.5 -1.5t38.5 -3.5v14
q0 37 -24.5 52.5t-73.5 15.5q-33 0 -74 -9.5t-72 -25.5v106q30 14 77.5 23.5t95.5 9.5q43 0 83 -8t71 -29t49 -58.5t18 -97.5v-273h-122zM272 512h-101l82 138h160z" />
    <glyph glyph-name="acircumflex" unicode="&#xe2;" horiz-adv-x="525" 
d="M318 198q-11 2 -29.5 3.5t-32.5 1.5q-35 0 -60.5 -13.5t-25.5 -48.5q0 -29 19.5 -41t41.5 -12q30 0 51 11t36 32v67zM346 0l-14 56h-2q-15 -28 -54.5 -48.5t-93.5 -20.5q-67 0 -108.5 36.5t-41.5 105.5q0 45 19 75t49 48t67.5 25.5t73.5 7.5q16 0 38.5 -1.5t38.5 -3.5v14
q0 37 -24.5 52.5t-73.5 15.5q-33 0 -74 -9.5t-72 -25.5v106q30 14 77.5 23.5t95.5 9.5q43 0 83 -8t71 -29t49 -58.5t18 -97.5v-273h-122zM327 512l-65 57l-65 -57h-99l118 138h92l118 -138h-99z" />
    <glyph glyph-name="atilde" unicode="&#xe3;" horiz-adv-x="525" 
d="M318 198q-11 2 -29.5 3.5t-32.5 1.5q-35 0 -60.5 -13.5t-25.5 -48.5q0 -29 19.5 -41t41.5 -12q30 0 51 11t36 32v67zM346 0l-14 56h-2q-15 -28 -54.5 -48.5t-93.5 -20.5q-67 0 -108.5 36.5t-41.5 105.5q0 45 19 75t49 48t67.5 25.5t73.5 7.5q16 0 38.5 -1.5t38.5 -3.5v14
q0 37 -24.5 52.5t-73.5 15.5q-33 0 -74 -9.5t-72 -25.5v106q30 14 77.5 23.5t95.5 9.5q43 0 83 -8t71 -29t49 -58.5t18 -97.5v-273h-122zM422 643q1 -24 -2.5 -47.5t-14 -41.5t-29 -29t-46.5 -11q-21 0 -37 6.5t-30 15t-27.5 15t-28.5 6.5q-27 0 -24 -38h-79q-2 27 2 50.5
t15 41t29 27.5t44 10q21 0 37.5 -6.5t30.5 -15t27.5 -15t29.5 -6.5q11 0 19 7.5t5 30.5h79z" />
    <glyph glyph-name="adieresis" unicode="&#xe4;" horiz-adv-x="525" 
d="M318 198q-11 2 -29.5 3.5t-32.5 1.5q-35 0 -60.5 -13.5t-25.5 -48.5q0 -29 19.5 -41t41.5 -12q30 0 51 11t36 32v67zM346 0l-14 56h-2q-15 -28 -54.5 -48.5t-93.5 -20.5q-67 0 -108.5 36.5t-41.5 105.5q0 45 19 75t49 48t67.5 25.5t73.5 7.5q16 0 38.5 -1.5t38.5 -3.5v14
q0 37 -24.5 52.5t-73.5 15.5q-33 0 -74 -9.5t-72 -25.5v106q30 14 77.5 23.5t95.5 9.5q43 0 83 -8t71 -29t49 -58.5t18 -97.5v-273h-122zM224 581q0 -34 -19.5 -54t-61.5 -20t-61.5 20t-19.5 54t19.5 54t61.5 20t61.5 -20t19.5 -54zM462 581q0 -34 -19.5 -54t-61.5 -20
t-61.5 20t-19.5 54t19.5 54t61.5 20t61.5 -20t19.5 -54z" />
    <glyph glyph-name="aring" unicode="&#xe5;" horiz-adv-x="525" 
d="M318 198q-11 2 -29.5 3.5t-32.5 1.5q-35 0 -60.5 -13.5t-25.5 -48.5q0 -29 19.5 -41t41.5 -12q30 0 51 11t36 32v67zM346 0l-14 56h-2q-15 -28 -54.5 -48.5t-93.5 -20.5q-67 0 -108.5 36.5t-41.5 105.5q0 45 19 75t49 48t67.5 25.5t73.5 7.5q16 0 38.5 -1.5t38.5 -3.5v14
q0 37 -24.5 52.5t-73.5 15.5q-33 0 -74 -9.5t-72 -25.5v106q30 14 77.5 23.5t95.5 9.5q43 0 83 -8t71 -29t49 -58.5t18 -97.5v-273h-122zM377 581q0 -22 -9 -40t-25 -31t-36.5 -20t-44.5 -7t-44.5 7t-36.5 20t-25 31t-9 40t9 40t25 31t36.5 20t44.5 7t44.5 -7t36.5 -20
t25 -31t9 -40zM302 581q0 17 -11.5 27.5t-28.5 10.5t-28.5 -10.5t-11.5 -27.5t11.5 -27.5t28.5 -10.5t28.5 10.5t11.5 27.5z" />
    <glyph glyph-name="ae" unicode="&#xe6;" horiz-adv-x="804" 
d="M735 19q-38 -18 -76.5 -27.5t-87.5 -9.5q-72 0 -119 19t-71 55q-33 -38 -79.5 -53.5t-109.5 -15.5q-33 0 -62.5 9t-51 27t-34 44.5t-12.5 61.5q0 45 20.5 75t52.5 48t71 25.5t75 7.5q14 0 37 -1t40 -3q3 22 7 33q-9 26 -39 37t-72 11q-17 0 -36.5 -2.5t-39.5 -7
t-39.5 -11t-34.5 -14.5v106q15 7 36.5 13t46 10.5t50.5 7t50 2.5q45 0 84.5 -11.5t68.5 -37.5q27 20 63 34.5t81 14.5q57 0 97.5 -18t66.5 -47.5t38 -68.5t12 -81q0 -18 -1.5 -34t-6.5 -32h-291q2 -51 30 -75t95 -24q22 0 39.5 3t33.5 8.5t32 13t36 17.5v-109zM325 200
q-14 2 -31 2.5t-28 0.5q-18 0 -35 -3t-30.5 -10.5t-22 -19t-8.5 -29.5q0 -14 7 -24t17.5 -16.5t23 -9.5t23.5 -3q29 0 55 10.5t41 30.5q-10 33 -12 71zM635 270q-2 48 -19.5 73.5t-60.5 25.5q-45 0 -63.5 -26.5t-22.5 -72.5h166z" />
    <glyph glyph-name="ccedilla" unicode="&#xe7;" horiz-adv-x="493" 
d="M455 18q-27 -17 -56.5 -25.5t-76.5 -10.5l-2 -32q40 -2 69.5 -20.5t29.5 -58.5q0 -29 -12 -47.5t-31.5 -30t-45 -16t-51.5 -4.5q-35 0 -65 6v74q8 -2 21 -2.5t21 -0.5q24 0 45 7.5t21 24.5q0 10 -7.5 16t-19.5 9.5t-26.5 5t-28.5 1.5l17 71q-48 6 -88 25t-69.5 50
t-45.5 72.5t-16 92.5q0 54 19.5 98t54 76t83 49.5t106.5 17.5q51 0 89 -10t59 -22v-110q-26 17 -55.5 27t-66.5 10q-64 0 -97.5 -34.5t-33.5 -101.5t35.5 -102.5t93.5 -35.5q38 0 67.5 9t62.5 30v-108z" />
    <glyph glyph-name="egrave" unicode="&#xe8;" horiz-adv-x="550" 
d="M481 19q-38 -18 -84.5 -27.5t-95.5 -9.5q-68 0 -117.5 18t-82 51t-48 78.5t-15.5 99.5q0 52 16.5 95.5t48 75t77 49t104.5 17.5q57 0 100 -18t72 -47.5t43.5 -68.5t14.5 -81q0 -18 -1.5 -34t-6.5 -32h-323q2 -51 38 -75t103 -24q45 0 81.5 11t75.5 31v-109zM381 270
q-2 48 -27.5 73.5t-68.5 25.5q-45 0 -71.5 -26.5t-30.5 -72.5h198zM265 512l-141 138h160l82 -138h-101z" />
    <glyph glyph-name="eacute" unicode="&#xe9;" horiz-adv-x="550" 
d="M481 19q-38 -18 -84.5 -27.5t-95.5 -9.5q-68 0 -117.5 18t-82 51t-48 78.5t-15.5 99.5q0 52 16.5 95.5t48 75t77 49t104.5 17.5q57 0 100 -18t72 -47.5t43.5 -68.5t14.5 -81q0 -18 -1.5 -34t-6.5 -32h-323q2 -51 38 -75t103 -24q45 0 81.5 11t75.5 31v-109zM381 270
q-2 48 -27.5 73.5t-68.5 25.5q-45 0 -71.5 -26.5t-30.5 -72.5h198zM285 512h-101l82 138h160z" />
    <glyph glyph-name="ecircumflex" unicode="&#xea;" horiz-adv-x="550" 
d="M481 19q-38 -18 -84.5 -27.5t-95.5 -9.5q-68 0 -117.5 18t-82 51t-48 78.5t-15.5 99.5q0 52 16.5 95.5t48 75t77 49t104.5 17.5q57 0 100 -18t72 -47.5t43.5 -68.5t14.5 -81q0 -18 -1.5 -34t-6.5 -32h-323q2 -51 38 -75t103 -24q45 0 81.5 11t75.5 31v-109zM381 270
q-2 48 -27.5 73.5t-68.5 25.5q-45 0 -71.5 -26.5t-30.5 -72.5h198zM340 512l-65 57l-65 -57h-99l118 138h92l118 -138h-99z" />
    <glyph glyph-name="edieresis" unicode="&#xeb;" horiz-adv-x="550" 
d="M481 19q-38 -18 -84.5 -27.5t-95.5 -9.5q-68 0 -117.5 18t-82 51t-48 78.5t-15.5 99.5q0 52 16.5 95.5t48 75t77 49t104.5 17.5q57 0 100 -18t72 -47.5t43.5 -68.5t14.5 -81q0 -18 -1.5 -34t-6.5 -32h-323q2 -51 38 -75t103 -24q45 0 81.5 11t75.5 31v-109zM381 270
q-2 48 -27.5 73.5t-68.5 25.5q-45 0 -71.5 -26.5t-30.5 -72.5h198zM237 581q0 -34 -19.5 -54t-61.5 -20t-61.5 20t-19.5 54t19.5 54t61.5 20t61.5 -20t19.5 -54zM475 581q0 -34 -19.5 -54t-61.5 -20t-61.5 20t-19.5 54t19.5 54t61.5 20t61.5 -20t19.5 -54z" />
    <glyph glyph-name="igrave" unicode="&#xec;" horiz-adv-x="280" 
d="M64 0v450h152v-450h-152zM115 512l-141 138h160l82 -138h-101z" />
    <glyph glyph-name="iacute" unicode="&#xed;" horiz-adv-x="280" 
d="M64 0v450h152v-450h-152zM172 512h-101l82 138h160z" />
    <glyph glyph-name="icircumflex" unicode="&#xee;" horiz-adv-x="280" 
d="M64 0v450h152v-450h-152zM210 512l-65 57l-65 -57h-99l118 138h92l118 -138h-99z" />
    <glyph glyph-name="idieresis" unicode="&#xef;" horiz-adv-x="280" 
d="M64 0v450h152v-450h-152zM104 581q0 -34 -19.5 -54t-61.5 -20t-61.5 20t-19.5 54t19.5 54t61.5 20t61.5 -20t19.5 -54zM342 581q0 -34 -19.5 -54t-61.5 -20t-61.5 20t-19.5 54t19.5 54t61.5 20t61.5 -20t19.5 -54z" />
    <glyph glyph-name="eth" unicode="&#xf0;" horiz-adv-x="588" 
d="M429 538q57 -57 87 -135.5t30 -172.5q0 -119 -69 -181t-186 -62q-58 0 -105 15.5t-80.5 44.5t-51.5 69.5t-18 90.5t17.5 89.5t51 67.5t81 42.5t107.5 14.5q26 0 37.5 -1.5t24.5 -4.5q-8 17 -21 36t-32 36l-149 -60v77l74 30q-22 9 -47.5 14.5t-54.5 6.5v94
q72 2 131.5 -14t107.5 -46l155 62v-77zM371 312q-38 13 -70 13.5t-55.5 -12t-36.5 -39t-13 -67.5q0 -120 95 -120t95 120q0 30 -2.5 56t-12.5 49z" />
    <glyph glyph-name="ntilde" unicode="&#xf1;" horiz-adv-x="593" 
d="M382 0v262q0 49 -20 67t-52 18q-30 0 -54.5 -9.5t-41.5 -20.5v-317h-154v450h126l14 -56h2q31 32 73 51t87 19q90 0 132 -48t42 -144v-272h-154zM456 643q1 -24 -2.5 -47.5t-14 -41.5t-29 -29t-46.5 -11q-21 0 -37 6.5t-30 15t-27.5 15t-28.5 6.5q-27 0 -24 -38h-79
q-2 27 2 50.5t15 41t29 27.5t44 10q21 0 37.5 -6.5t30.5 -15t27.5 -15t29.5 -6.5q11 0 19 7.5t5 30.5h79z" />
    <glyph glyph-name="ograve" unicode="&#xf2;" horiz-adv-x="596" 
d="M558 224q0 -52 -17.5 -96t-50.5 -76.5t-81.5 -51t-110.5 -18.5t-110.5 18.5t-81.5 51t-50.5 76.5t-17.5 96t17.5 96t50.5 76.5t81.5 51t110.5 18.5t110.5 -18.5t81.5 -51t50.5 -76.5t17.5 -96zM298 89q48 0 75 34t27 101t-27 101t-75 34t-75 -34t-27 -101t27 -101t75 -34
zM288 512l-141 138h160l82 -138h-101z" />
    <glyph glyph-name="oacute" unicode="&#xf3;" horiz-adv-x="596" 
d="M558 224q0 -52 -17.5 -96t-50.5 -76.5t-81.5 -51t-110.5 -18.5t-110.5 18.5t-81.5 51t-50.5 76.5t-17.5 96t17.5 96t50.5 76.5t81.5 51t110.5 18.5t110.5 -18.5t81.5 -51t50.5 -76.5t17.5 -96zM298 89q48 0 75 34t27 101t-27 101t-75 34t-75 -34t-27 -101t27 -101t75 -34
zM308 512h-101l82 138h160z" />
    <glyph glyph-name="ocircumflex" unicode="&#xf4;" horiz-adv-x="596" 
d="M558 224q0 -52 -17.5 -96t-50.5 -76.5t-81.5 -51t-110.5 -18.5t-110.5 18.5t-81.5 51t-50.5 76.5t-17.5 96t17.5 96t50.5 76.5t81.5 51t110.5 18.5t110.5 -18.5t81.5 -51t50.5 -76.5t17.5 -96zM298 89q48 0 75 34t27 101t-27 101t-75 34t-75 -34t-27 -101t27 -101t75 -34
zM363 512l-65 57l-65 -57h-99l118 138h92l118 -138h-99z" />
    <glyph glyph-name="otilde" unicode="&#xf5;" horiz-adv-x="596" 
d="M558 224q0 -52 -17.5 -96t-50.5 -76.5t-81.5 -51t-110.5 -18.5t-110.5 18.5t-81.5 51t-50.5 76.5t-17.5 96t17.5 96t50.5 76.5t81.5 51t110.5 18.5t110.5 -18.5t81.5 -51t50.5 -76.5t17.5 -96zM298 89q48 0 75 34t27 101t-27 101t-75 34t-75 -34t-27 -101t27 -101t75 -34
zM457 643q1 -24 -2.5 -47.5t-14 -41.5t-29 -29t-46.5 -11q-21 0 -37 6.5t-30 15t-27.5 15t-28.5 6.5q-27 0 -24 -38h-79q-2 27 2 50.5t15 41t29 27.5t44 10q21 0 37.5 -6.5t30.5 -15t27.5 -15t29.5 -6.5q11 0 19 7.5t5 30.5h79z" />
    <glyph glyph-name="odieresis" unicode="&#xf6;" horiz-adv-x="596" 
d="M558 224q0 -52 -17.5 -96t-50.5 -76.5t-81.5 -51t-110.5 -18.5t-110.5 18.5t-81.5 51t-50.5 76.5t-17.5 96t17.5 96t50.5 76.5t81.5 51t110.5 18.5t110.5 -18.5t81.5 -51t50.5 -76.5t17.5 -96zM298 89q48 0 75 34t27 101t-27 101t-75 34t-75 -34t-27 -101t27 -101t75 -34
zM260 581q0 -34 -19.5 -54t-61.5 -20t-61.5 20t-19.5 54t19.5 54t61.5 20t61.5 -20t19.5 -54zM498 581q0 -34 -19.5 -54t-61.5 -20t-61.5 20t-19.5 54t19.5 54t61.5 20t61.5 -20t19.5 -54z" />
    <glyph glyph-name="divide" unicode="&#xf7;" horiz-adv-x="548" 
d="M505 259h-462v110h462v-110zM274 409q-34 0 -58 23.5t-24 57.5q0 35 24 58t58 23q17 0 31.5 -6.5t25.5 -18t17 -26t6 -30.5q0 -35 -23 -58t-57 -23zM274 56q-34 0 -58 23.5t-24 57.5q0 35 24 58t58 23q17 0 31.5 -6.5t25.5 -18t17 -26t6 -30.5q0 -35 -23 -58t-57 -23z
" />
    <glyph glyph-name="oslash" unicode="&#xf8;" horiz-adv-x="596" 
d="M48 -18l60 67q-70 66 -70 175q0 52 17.5 96t50.5 76.5t81.5 51t110.5 18.5q86 0 147 -35l31 35h72l-60 -67q34 -33 52 -77t18 -98q0 -52 -17.5 -96t-50.5 -76.5t-81.5 -51t-110.5 -18.5q-45 0 -82.5 10t-67.5 27l-33 -37h-67zM232 113q25 -24 66 -24q48 0 75 34t27 101
q0 39 -10 66zM361 336q-26 23 -63 23q-48 0 -75 -34t-27 -101q0 -38 9 -65z" />
    <glyph glyph-name="ugrave" unicode="&#xf9;" horiz-adv-x="577" 
d="M394 0l-14 56h-2q-30 -33 -69 -51.5t-84 -18.5q-87 0 -126 48t-39 144v272h154v-262q0 -49 17 -67t49 -18q25 0 47 9.5t39 20.5v317h154v-450h-126zM278 512l-141 138h160l82 -138h-101z" />
    <glyph glyph-name="uacute" unicode="&#xfa;" horiz-adv-x="577" 
d="M394 0l-14 56h-2q-30 -33 -69 -51.5t-84 -18.5q-87 0 -126 48t-39 144v272h154v-262q0 -49 17 -67t49 -18q25 0 47 9.5t39 20.5v317h154v-450h-126zM298 512h-101l82 138h160z" />
    <glyph glyph-name="ucircumflex" unicode="&#xfb;" horiz-adv-x="577" 
d="M394 0l-14 56h-2q-30 -33 -69 -51.5t-84 -18.5q-87 0 -126 48t-39 144v272h154v-262q0 -49 17 -67t49 -18q25 0 47 9.5t39 20.5v317h154v-450h-126zM353 512l-65 57l-65 -57h-99l118 138h92l118 -138h-99z" />
    <glyph glyph-name="udieresis" unicode="&#xfc;" horiz-adv-x="577" 
d="M394 0l-14 56h-2q-30 -33 -69 -51.5t-84 -18.5q-87 0 -126 48t-39 144v272h154v-262q0 -49 17 -67t49 -18q25 0 47 9.5t39 20.5v317h154v-450h-126zM250 581q0 -34 -19.5 -54t-61.5 -20t-61.5 20t-19.5 54t19.5 54t61.5 20t61.5 -20t19.5 -54zM488 581q0 -34 -19.5 -54
t-61.5 -20t-61.5 20t-19.5 54t19.5 54t61.5 20t61.5 -20t19.5 -54z" />
    <glyph glyph-name="yacute" unicode="&#xfd;" horiz-adv-x="533" 
d="M26 -107q19 -8 38 -10t36 -2q49 0 79 70l18 45l-189 454h152l103 -312h2l104 312h156l-228 -537q-31 -72 -69.5 -107t-104.5 -35q-26 0 -51.5 4t-45.5 11v107zM296 512h-101l82 138h160z" />
    <glyph glyph-name="thorn" unicode="&#xfe;" horiz-adv-x="596" 
d="M62 -215v865h154v-244h2q24 24 57.5 41t89.5 17q43 0 78.5 -17t60.5 -48t38.5 -73t13.5 -93q0 -60 -16.5 -106.5t-44 -78t-64.5 -48t-78 -16.5q-54 0 -89 18t-52 36h-2q3 -13 4.5 -28.5t1.5 -40.5v-184h-154zM216 133q14 -11 39 -24t56 -13q42 0 65.5 33t23.5 100
q0 22 -4.5 44t-15 40t-28.5 29.5t-45 11.5q-52 0 -91 -45v-176z" />
    <glyph glyph-name="ydieresis" unicode="&#xff;" horiz-adv-x="533" 
d="M26 -107q19 -8 38 -10t36 -2q49 0 79 70l18 45l-189 454h152l103 -312h2l104 312h156l-228 -537q-31 -72 -69.5 -107t-104.5 -35q-26 0 -51.5 4t-45.5 11v107zM228 581q0 -34 -19.5 -54t-61.5 -20t-61.5 20t-19.5 54t19.5 54t61.5 20t61.5 -20t19.5 -54zM466 581
q0 -34 -19.5 -54t-61.5 -20t-61.5 20t-19.5 54t19.5 54t61.5 20t61.5 -20t19.5 -54z" />
    <glyph glyph-name="dotlessi" unicode="&#x131;" horiz-adv-x="280" 
d="M64 0v450h152v-450h-152z" />
    <glyph glyph-name="Lslash" unicode="&#x141;" horiz-adv-x="504" 
d="M64 0v251l-46 -26v87l46 26v272h156v-184l120 68v-87l-120 -68v-215h258v-124h-414z" />
    <glyph glyph-name="lslash" unicode="&#x142;" horiz-adv-x="288" 
d="M66 0v227l-58 -32v87l58 32v296h156v-208l58 33v-87l-58 -33v-315h-156z" />
    <glyph glyph-name="OE" unicode="&#x152;" horiz-adv-x="962" 
d="M486 0q-20 -6 -43.5 -9.5t-52.5 -3.5q-70 0 -133.5 20t-111.5 59.5t-76.5 99t-28.5 138.5t28.5 138.5t76.5 99t111.5 59t133.5 19.5q57 0 96 -10h434v-122h-280v-116h256v-119h-256v-131h280v-122h-434zM486 485q-20 10 -44 13t-52 3q-90 0 -137.5 -48.5t-47.5 -148.5
t47.5 -149t137.5 -49q28 0 52 2.5t44 13.5v363z" />
    <glyph glyph-name="oe" unicode="&#x153;" horiz-adv-x="906" 
d="M837 19q-75 -37 -177 -37q-135 0 -184 75q-28 -38 -73 -56.5t-105 -18.5q-62 0 -110.5 18.5t-81.5 51t-50.5 76.5t-17.5 96t17.5 96t50.5 76.5t81.5 51t110.5 18.5q60 0 104.5 -18.5t72.5 -56.5q52 75 175 75q54 0 95 -18t69 -47.5t42 -68.5t14 -81q0 -18 -1.5 -34
t-6.5 -32h-317q3 -99 138 -99q45 0 80 11t74 31v-109zM298 89q48 0 75 34t27 101t-27 101t-75 34t-75 -34t-27 -101t27 -101t75 -34zM737 270q-2 48 -26 73.5t-67 25.5q-45 0 -70 -26.5t-29 -72.5h192z" />
    <glyph glyph-name="Scaron" unicode="&#x160;" horiz-adv-x="528" 
d="M34 157q19 -13 43.5 -23t51.5 -17t54.5 -11t53.5 -4q43 0 70 11t27 45q0 27 -21.5 45t-53.5 34t-69.5 32.5t-69.5 40.5t-53.5 58t-21.5 84q0 44 18 76.5t49.5 53.5t73.5 31.5t90 10.5q55 0 101 -9t77 -25v-126q-35 18 -77 30t-90 12q-38 0 -62 -12.5t-24 -38.5
q0 -24 21.5 -41t54 -33t70 -33.5t70 -42.5t54 -60.5t21.5 -86.5q0 -45 -20 -78t-54 -54t-78 -31.5t-92 -10.5q-33 0 -66 4.5t-61.5 11t-51 15t-35.5 17.5v125zM218 672l-118 138h99l65 -57l65 57h99l-118 -138h-92z" />
    <glyph glyph-name="scaron" unicode="&#x161;" horiz-adv-x="446" 
d="M37 114q32 -13 68.5 -21.5t67.5 -8.5q51 0 71 11t20 26q0 11 -9 18.5t-23 14t-32 12.5t-37 14q-22 10 -44.5 21t-41 27t-30 39t-11.5 57q0 29 13 55t37.5 45.5t60.5 30.5t82 11q45 0 86.5 -7t64.5 -16v-103q-30 14 -59.5 20.5t-60.5 6.5q-40 0 -61.5 -10t-21.5 -26
q0 -19 25 -29.5t60 -21.5q25 -8 51 -18.5t47 -27.5t34.5 -41.5t13.5 -60.5q0 -37 -16 -65t-44 -47t-64.5 -28.5t-77.5 -9.5q-57 0 -101.5 8t-67.5 18v106zM177 512l-118 138h99l65 -57l65 57h99l-118 -138h-92z" />
    <glyph glyph-name="Ydieresis" unicode="&#x178;" horiz-adv-x="622" 
d="M233 0v234l-229 376h161l91 -160l54 -108h2l54 108l91 160h161l-229 -376v-234h-156zM273 741q0 -34 -19.5 -54t-61.5 -20t-61.5 20t-19.5 54t19.5 54t61.5 20t61.5 -20t19.5 -54zM511 741q0 -34 -19.5 -54t-61.5 -20t-61.5 20t-19.5 54t19.5 54t61.5 20t61.5 -20
t19.5 -54z" />
    <glyph glyph-name="Zcaron" unicode="&#x17d;" horiz-adv-x="571" 
d="M34 0v108l307 386l-294 -2v118h471v-108l-307 -386l324 2v-118h-501zM239 672l-118 138h99l65 -57l65 57h99l-118 -138h-92z" />
    <glyph glyph-name="zcaron" unicode="&#x17e;" horiz-adv-x="484" 
d="M34 0v94l239 254l-228 -2v104h390v-94l-240 -254l253 2v-104h-414zM196 512l-118 138h99l65 -57l65 57h99l-118 -138h-92z" />
    <glyph glyph-name="florin" unicode="&#x192;" horiz-adv-x="652" 
d="M72 -68q27 -8 54 -8q29 0 45.5 10.5t24.5 32.5q4 11 8 27.5t7 39.5l42 292h-114l17 109h113q3 22 6.5 39.5t8 32.5t11.5 29.5t17 29.5q20 31 64.5 52t104.5 21q17 0 45.5 -3t60.5 -9l-16 -112q-17 2 -34.5 3.5t-26.5 1.5q-17 0 -32 -3t-27 -12.5t-21 -26t-13 -43.5h122
l-18 -109h-120l-52 -361q-6 -38 -23 -68t-42.5 -50.5t-57.5 -31t-67 -10.5q-19 0 -45 3.5t-60 9.5z" />
    <glyph glyph-name="circumflex" unicode="&#x2c6;" horiz-adv-x="400" 
d="M265 512l-65 57l-65 -57h-99l118 138h92l118 -138h-99z" />
    <glyph glyph-name="caron" unicode="&#x2c7;" horiz-adv-x="400" 
d="M154 512l-118 138h99l65 -57l65 57h99l-118 -138h-92z" />
    <glyph glyph-name="breve" unicode="&#x2d8;" horiz-adv-x="400" 
d="M355 650q0 -36 -12.5 -63t-33.5 -44.5t-49.5 -26.5t-59.5 -9q-32 0 -60 9t-49 26.5t-33.5 44.5t-12.5 63h87q0 -32 18 -48t50 -16t50.5 16t18.5 48h86z" />
    <glyph glyph-name="dotaccent" unicode="&#x2d9;" horiz-adv-x="400" 
d="M295 581q0 -38 -23.5 -60.5t-71.5 -22.5t-71.5 22.5t-23.5 60.5t23.5 60.5t71.5 22.5t71.5 -22.5t23.5 -60.5z" />
    <glyph glyph-name="ring" unicode="&#x2da;" horiz-adv-x="400" 
d="M315 581q0 -22 -9 -40t-25 -31t-36.5 -20t-44.5 -7t-44.5 7t-36.5 20t-25 31t-9 40t9 40t25 31t36.5 20t44.5 7t44.5 -7t36.5 -20t25 -31t9 -40zM240 581q0 17 -11.5 27.5t-28.5 10.5t-28.5 -10.5t-11.5 -27.5t11.5 -27.5t28.5 -10.5t28.5 10.5t11.5 27.5z" />
    <glyph glyph-name="ogonek" unicode="&#x2db;" horiz-adv-x="400" 
d="M266 -165q-17 -6 -41 -11t-50 -5q-23 0 -45.5 5t-40.5 15.5t-29 27t-11 39.5q0 36 21.5 59.5t47.5 37.5q30 16 69 24l67 -27q-13 -4 -28 -10t-28.5 -15t-22.5 -20.5t-9 -26.5q0 -29 49 -29q19 0 51 8v-72z" />
    <glyph glyph-name="tilde" unicode="&#x2dc;" horiz-adv-x="400" 
d="M359 643q1 -24 -2.5 -47.5t-14 -41.5t-29 -29t-46.5 -11q-21 0 -37 6.5t-30 15t-27.5 15t-28.5 6.5q-27 0 -24 -38h-79q-2 27 2 50.5t15 41t29 27.5t44 10q21 0 37.5 -6.5t30.5 -15t27.5 -15t29.5 -6.5q11 0 19 7.5t5 30.5h79z" />
    <glyph glyph-name="hungarumlaut" unicode="&#x2dd;" horiz-adv-x="400" 
d="M399 512h-95l82 138h154zM192 512h-95l82 138h154z" />
    <glyph glyph-name="uni03A9" unicode="&#x3a9;" horiz-adv-x="700" 
d="M388 0v104q27 25 48 55t35 61t21.5 62.5t7.5 61.5q0 31 -6.5 60.5t-23 52t-45.5 36t-75 13.5t-75 -13.5t-45.5 -36t-23 -52t-6.5 -60.5q0 -30 7.5 -61.5t21.5 -62.5t35 -61t48 -55v-104h-264v112h118q-27 18 -50.5 43.5t-41 56.5t-27 66.5t-9.5 74.5q0 63 20.5 113.5
t60 86t98 54.5t133.5 19t133.5 -19t98 -54.5t60 -86t20.5 -113.5q0 -39 -9.5 -74.5t-27 -66.5t-41 -56.5t-50.5 -43.5h118v-112h-264z" />
    <glyph glyph-name="pi" unicode="&#x3c0;" horiz-adv-x="632" 
d="M592 3q-12 -5 -34.5 -10.5t-54.5 -5.5q-46 0 -74.5 14t-44 36.5t-21 50.5t-5.5 56v182h-85l-20 -326h-149l20 326l-104 10v114h578v-124h-90v-163q0 -34 13.5 -47t32.5 -13t38 10v-110z" />
    <glyph glyph-name="uni0E00" unicode="&#xe00;" horiz-adv-x="175" 
 />
    <glyph glyph-name="uni0E01" unicode="&#xe01;" horiz-adv-x="656" 
d="M443 0v313q0 67 -25.5 100t-90.5 33q-31 0 -59.5 -3.5t-51.5 -8.5v-434h-154v518q21 7 51.5 15t66 14.5t74 11t77.5 4.5q62 0 111.5 -13t84 -42t52.5 -75.5t18 -113.5v-319h-154z" />
    <glyph glyph-name="uni0E02" unicode="&#xe02;" horiz-adv-x="618" 
d="M405 547h154v-319q0 -63 -19.5 -109t-54 -76.5t-82 -45.5t-104.5 -15q-121 0 -186.5 58.5t-65.5 157.5q0 51 20.5 87t45 62t45 44t20.5 34q0 23 -38 23q-17 0 -39 -5t-42 -15v111q22 9 54 14.5t58 5.5q73 0 107 -31.5t34 -85.5q0 -40 -17.5 -66.5t-39 -51t-39 -51.5
t-17.5 -69q0 -48 25.5 -77.5t74.5 -29.5q51 0 78.5 30.5t27.5 100.5v319z" />
    <glyph glyph-name="uni0E03" unicode="&#xe03;" horiz-adv-x="622" 
d="M409 547h154v-319q0 -63 -19.5 -109t-54.5 -76.5t-83 -45.5t-105 -15q-60 0 -107 15t-79 42.5t-49 65.5t-17 84q0 50 19.5 86t44 64.5t46.5 51.5t26 47h-2q-13 -8 -32 -14t-39 -6q-47 0 -77 24v115q18 -17 39 -28.5t47 -11.5q17 0 39 8t36 22h113v-91q0 -29 -8 -51
t-20 -41t-26 -36.5t-26 -36.5t-20 -41t-8 -50q0 -45 25.5 -74t74.5 -29q51 0 79.5 30.5t28.5 100.5v319z" />
    <glyph glyph-name="uni0E04" unicode="&#xe04;" horiz-adv-x="676" 
d="M463 0v306q0 70 -27 105t-98 35q-69 0 -97 -35t-28 -105v-72q21 35 52 54.5t69 19.5q25 0 43 -6v-128q-12 3 -24 5t-29 2q-35 0 -64.5 -14.5t-46.5 -41.5v-125h-154v309q0 67 21.5 115t59 79t88.5 45.5t110 14.5q62 0 113.5 -14.5t88 -45.5t57 -79t20.5 -115v-309h-154z
" />
    <glyph glyph-name="uni0E05" unicode="&#xe05;" horiz-adv-x="684" 
d="M471 0v368q0 24 -3 39.5t-9 24t-14.5 11.5t-18.5 3q-38 0 -42 -54h-84q-6 54 -42 54q-11 0 -19 -3t-14 -11.5t-9 -24t-3 -39.5v-134q21 35 54 54.5t71 19.5q11 0 23.5 -1.5t21.5 -4.5v-128q-12 3 -25 5t-30 2q-35 0 -66.5 -14.5t-48.5 -41.5v-125h-154v369q0 96 46 145
t118 49q42 0 73 -18.5t45 -48.5h2q14 30 45 48.5t73 18.5q72 0 118 -49t46 -145v-369h-154z" />
    <glyph glyph-name="uni0E06" unicode="&#xe06;" horiz-adv-x="649" 
d="M436 547h154v-348q0 -106 -48 -160.5t-139 -54.5q-64 0 -109 24t-78 59h-2l-23 -67h-129v189q0 50 17.5 86t39.5 64.5t41.5 51.5t23.5 47h-2q-13 -8 -32 -14t-39 -6q-47 0 -77 24v115q18 -17 39 -28.5t47 -11.5q17 0 39 8t36 22h117v-91q0 -43 -15 -72.5t-33 -56.5
t-33 -56t-15 -71v-23q23 -30 58.5 -53t78.5 -23q48 0 65.5 28t17.5 73v345z" />
    <glyph glyph-name="uni0E07" unicode="&#xe07;" horiz-adv-x="610" 
d="M198 0l-154 430q-8 23 -16 44t-15 38l-15 35h155l149 -433h1q36 14 60 35.5t39 48.5t21 57.5t6 62.5q0 60 -25.5 95t-73.5 35q-37 0 -65 -9v113q18 5 42 7t41 2q49 0 90.5 -15.5t71 -46.5t46 -76t16.5 -104q0 -78 -23.5 -133t-59.5 -92.5t-79.5 -59.5t-83.5 -34h-128z
" />
    <glyph glyph-name="uni0E08" unicode="&#xe08;" horiz-adv-x="615" 
d="M181 0l-74 182q-7 17 -15.5 34.5t-16.5 32.5l-19 35h159l61 -177q30 3 56.5 16t46 36t31 56.5t11.5 78.5q0 76 -44 114t-125 38q-61 0 -114.5 -14.5t-101.5 -35.5v123q39 17 97.5 30.5t130.5 13.5q78 0 136.5 -20t97.5 -55.5t58 -85t19 -108.5q0 -70 -25.5 -122t-66 -88
t-91 -56.5t-99.5 -27.5h-112z" />
    <glyph glyph-name="uni0E09" unicode="&#xe09;" horiz-adv-x="634" 
d="M446 0l-23 67h-2q-32 -35 -74.5 -59t-99.5 -24q-96 0 -141 48.5t-45 136.5v44q0 38 -5 63l-5 24h162v-120q0 -35 16.5 -57t59.5 -22q42 0 75.5 22t56.5 54v136q0 74 -38.5 103.5t-120.5 29.5q-60 0 -115 -14.5t-100 -37.5v127q46 19 112 30.5t132 11.5q59 0 111 -13.5
t90.5 -43t60.5 -75t22 -109.5v-322h-129z" />
    <glyph glyph-name="uni0E0A" unicode="&#xe0a;" horiz-adv-x="630" 
d="M467 420q22 -10 42.5 -26t36.5 -40t25.5 -55.5t9.5 -73.5q0 -64 -20.5 -110t-57 -75.5t-86.5 -43.5t-109 -14q-126 0 -193.5 58t-67.5 158q0 51 19.5 87t43.5 62t43.5 44t19.5 34q0 23 -38 23q-17 0 -39 -5t-42 -15v111q22 9 54 14.5t58 5.5q73 0 107 -31.5t34 -85.5
q0 -40 -17 -66.5t-37 -51t-37 -51.5t-17 -69q0 -48 27.5 -77.5t76.5 -29.5q60 0 93 34t33 106q0 133 -100 154v31l99 125h162z" />
    <glyph glyph-name="uni0E0B" unicode="&#xe0b;" horiz-adv-x="632" 
d="M469 420q22 -10 42.5 -26t36.5 -40t25.5 -55.5t9.5 -73.5q0 -64 -20.5 -110t-57 -75.5t-86.5 -43.5t-109 -14q-126 0 -193.5 58t-67.5 158q0 50 19.5 85t43.5 61.5t45.5 48t25.5 45.5h-2q-13 -8 -32 -14t-39 -6q-47 0 -77 24v115q18 -17 39 -28.5t47 -11.5q17 0 39 8
t36 22h113v-91q0 -43 -16.5 -72t-36.5 -55t-36.5 -54.5t-16.5 -70.5q0 -48 27.5 -77.5t76.5 -29.5q60 0 93 34t33 106q0 133 -100 154v31l99 125h162z" />
    <glyph glyph-name="uni0E0C" unicode="&#xe0c;" horiz-adv-x="992" 
d="M779 547h154v-359q0 -97 -46.5 -150.5t-131.5 -53.5q-58 0 -101.5 24t-76.5 59h-2l-23 -67h-129v316q0 66 -23 98t-83 32q-25 0 -51.5 -3t-49.5 -9v-277q0 -37 12 -49.5t42 -12.5q20 0 34 2.5t32 7.5v-105q-50 -14 -104 -14q-35 0 -66 8.5t-54 27t-36.5 49.5t-13.5 76
v371q21 8 51 16t64.5 14.5t71.5 10.5t72 4q59 0 106.5 -13t80.5 -41.5t51 -74t18 -110.5v-147q23 -30 57 -53t71 -23q42 0 58 27.5t16 65.5v353z" />
    <glyph glyph-name="uni0E0D" unicode="&#xe0d;" horiz-adv-x="992" 
d="M779 547h154v-319q0 -48 -15 -87.5t-46.5 -67.5t-79.5 -43.5t-114 -15.5t-114 15.5t-79.5 43.5t-46.5 67.5t-15 87.5v88q0 66 -23 98t-83 32q-25 0 -51.5 -3t-49.5 -9v-277q0 -37 12 -49.5t42 -12.5q20 0 34 2.5t32 7.5v-105q-50 -14 -104 -14q-35 0 -66 8.5t-54 27
t-36.5 49.5t-13.5 76v371q21 8 51 16t64.5 14.5t71.5 10.5t72 4q59 0 106.5 -13t80.5 -41.5t51 -74t18 -110.5v-90q0 -48 25 -75.5t76 -27.5t76 27.5t25 75.5v313zM938 -113q-32 -24 -96.5 -47t-156.5 -23t-156.5 23t-96.5 47l59 104q32 -23 77.5 -41t116.5 -18t116.5 18
t77.5 41z" />
    <glyph glyph-name="uni0E0E" unicode="&#xe0e;" horiz-adv-x="683" 
d="M478 -233l-142 47q-27 10 -50 10q-45 0 -43 -56h-120q-2 81 37.5 118.5t103.5 37.5q42 0 92 -15l114 -35v447q0 30 -4 53.5t-15 39.5t-31 24t-53 8q-29 0 -52.5 -3.5t-46.5 -8.5v-283q0 -46 -10 -77t-30 -50t-49 -27.5t-68 -8.5q-29 0 -51 3.5t-44 10.5v105
q27 -10 55 -10q23 0 33 12t10 41v368q21 7 50.5 15t63 14.5t70.5 11t73 4.5q124 0 188.5 -54.5t64.5 -183.5v-558h-146z" />
    <glyph glyph-name="uni0E0F" unicode="&#xe0f;" horiz-adv-x="683" 
d="M460 -233q-48 0 -85 19t-51 54q-14 -35 -45.5 -56.5t-79.5 -21.5q-23 0 -48.5 2.5t-51.5 16.5v114q21 -12 42 -17t46 -5q32 0 52.5 12t34.5 52h93q14 -36 38 -47t55 -11h10v442q0 30 -4 53.5t-15 39.5t-31 24t-53 8q-29 0 -52.5 -3.5t-46.5 -8.5v-283q0 -46 -10 -77
t-30 -50t-49 -27.5t-68 -8.5q-29 0 -51 3.5t-44 10.5v105q27 -10 55 -10q23 0 33 12t10 41v368q21 7 50.5 15t63 14.5t70.5 11t73 4.5q124 0 188.5 -54.5t64.5 -183.5v-558h-164z" />
    <glyph glyph-name="uni0E10" unicode="&#xe10;" horiz-adv-x="619" 
d="M181 0l-74 182q-7 17 -15.5 34.5t-16.5 32.5l-19 35h159l61 -177q30 3 56.5 16t46 36t31 56.5t11.5 78.5q0 72 -45.5 112t-123.5 40q-61 0 -114.5 -14.5t-101.5 -35.5v123q39 17 97.5 30.5t130.5 13.5q35 0 65.5 -5t57.5 -14l45 50h163l-104 -106q42 -36 63 -86t21 -108
q0 -70 -25.5 -122t-66 -88t-91 -56.5t-99.5 -27.5h-112zM406 -232l-138 46q-27 10 -50 10q-47 0 -45 -56h-113q-2 81 35.5 118.5t101.5 37.5q41 0 91 -15l113 -35v83h125v-189h-120z" />
    <glyph glyph-name="uni0E11" unicode="&#xe11;" horiz-adv-x="668" 
d="M455 0v354q0 45 -16.5 70t-52.5 25q-40 0 -71 -23.5t-52 -61t-32 -83.5t-11 -91v-190h-154v189q0 50 16.5 86t37.5 64.5t39.5 51.5t22.5 47h-2q-13 -8 -32 -14t-39 -6q-47 0 -77 24v115q18 -17 39 -28.5t47 -11.5q17 0 39 8t36 22h67l21 -54q24 26 61 48t96 22
q82 0 126.5 -53.5t44.5 -150.5v-359h-154z" />
    <glyph glyph-name="uni0E12" unicode="&#xe12;" horiz-adv-x="1083" 
d="M870 547h154v-348q0 -106 -48 -160.5t-139 -54.5q-64 0 -109 24t-78 59h-2l-23 -67h-127v397q0 27 -11 38t-25 11q-20 0 -32.5 -15t-14.5 -39h-85q-2 25 -9.5 39.5t-32.5 14.5q-18 0 -35.5 -11t-31 -33t-21.5 -55t-8 -78q0 -32 7 -62.5t22 -54.5t39 -38.5t58 -14.5
q35 0 58 6.5t47 18.5v-111q-22 -11 -57 -18.5t-72 -7.5q-71 0 -119.5 24.5t-78.5 64.5t-43 89.5t-13 100.5q0 61 16 115t45 94.5t71 64t95 23.5q42 0 68.5 -19t40.5 -48h2q17 29 48.5 48t76.5 19q37 0 65 -12t46 -33t27 -50t9 -63v-228q23 -30 58.5 -53t78.5 -23
q48 0 65.5 28t17.5 73v345z" />
    <glyph glyph-name="uni0E13" unicode="&#xe13;" horiz-adv-x="995" 
d="M804 0l-23 67h-2q-32 -36 -77 -59.5t-108 -23.5q-78 0 -124.5 47t-46.5 135v150q0 66 -23 98t-83 32q-25 0 -51.5 -3t-49.5 -9v-277q0 -37 12 -49.5t42 -12.5q20 0 34 2.5t32 7.5v-105q-50 -14 -104 -14q-35 0 -66 8.5t-54 27t-36.5 49.5t-13.5 76v371q21 8 51 16
t64.5 14.5t71.5 10.5t72 4q59 0 106.5 -13t80.5 -41.5t51 -74t18 -110.5v-147q0 -13 3.5 -26.5t12.5 -24.5t23 -18t35 -7q37 0 71 23t57 53v370h154v-547h-129z" />
    <glyph glyph-name="uni0E14" unicode="&#xe14;" horiz-adv-x="684" 
d="M468 0v414q-18 14 -44 23t-63 9q-75 0 -121 -45.5t-46 -143.5q0 -32 6.5 -60.5t21 -50.5t38 -34.5t57.5 -12.5q33 0 52.5 5.5t43.5 17.5v-111q-22 -11 -54.5 -17.5t-65.5 -6.5q-71 0 -119.5 23t-78 60.5t-42.5 86t-13 100.5q0 72 24 128.5t66.5 96t100 60t123.5 20.5
q97 0 163.5 -30t104.5 -75v-457h-154z" />
    <glyph glyph-name="uni0E15" unicode="&#xe15;" horiz-adv-x="717" 
d="M506 0v397q0 27 -12 38t-26 11q-20 0 -33.5 -15t-15.5 -39h-85q-2 25 -10.5 39.5t-33.5 14.5q-18 0 -36 -11t-31.5 -33t-22 -55t-8.5 -78q0 -32 7.5 -62.5t23.5 -54.5t40.5 -38.5t58.5 -14.5q35 0 58 6.5t47 18.5v-111q-22 -11 -57 -18.5t-72 -7.5q-71 0 -120.5 24.5
t-80 64.5t-44 89.5t-13.5 100.5q0 61 16 115t46 94.5t72 64t95 23.5q42 0 69.5 -19t41.5 -48h2q17 29 49.5 48t77.5 19q38 0 66 -12t46.5 -33t27.5 -50t9 -63v-405h-152z" />
    <glyph glyph-name="uni0E16" unicode="&#xe16;" horiz-adv-x="660" 
d="M447 0v313q0 67 -26 100t-92 33q-31 0 -60.5 -3.5t-52.5 -8.5v-277q0 -37 12.5 -50.5t50.5 -13.5q17 0 34.5 3t40.5 11v-105q-20 -8 -48.5 -13t-66.5 -5q-39 0 -71.5 8.5t-56 28t-36.5 50.5t-13 76v371q21 7 51.5 15t66.5 14.5t75 11t78 4.5q62 0 112 -13t84.5 -42
t53 -75.5t18.5 -113.5v-319h-154z" />
    <glyph glyph-name="uni0E17" unicode="&#xe17;" horiz-adv-x="664" 
d="M451 0v345q0 45 -18 73t-66 28q-51 0 -89.5 -23t-61.5 -53v-370h-154v547h129l23 -67h2q32 36 80.5 59.5t115.5 23.5q93 0 143 -54.5t50 -160.5v-348h-154z" />
    <glyph glyph-name="uni0E18" unicode="&#xe18;" horiz-adv-x="619" 
d="M65 233h150v-133q15 -2 41.5 -4.5t55.5 -2.5q54 0 83.5 14.5t29.5 52.5q0 22 -10.5 37t-29 25t-43 16t-51.5 11q-41 7 -83.5 15.5t-77.5 25t-57.5 45.5t-22.5 77q0 70 70 110.5t201 40.5q29 0 60 -3t59.5 -7.5t52 -10.5t38.5 -12v-112q-45 17 -96 24.5t-102 7.5
q-60 0 -95.5 -7.5t-35.5 -26.5q0 -24 39 -35t111 -24q36 -7 75.5 -18.5t72.5 -32.5t55 -54.5t22 -84.5q0 -54 -21 -89t-57 -55.5t-84 -28.5t-103 -8q-28 0 -60.5 2t-65.5 5t-64.5 7.5t-56.5 9.5v223z" />
    <glyph glyph-name="uni0E19" unicode="&#xe19;" horiz-adv-x="649" 
d="M458 0l-23 67h-2q-32 -35 -75.5 -59t-100.5 -24q-99 0 -148.5 53.5t-49.5 152.5v357h154v-352q0 -39 18 -66.5t69 -27.5q40 0 75 22t58 54v370h154v-547h-129z" />
    <glyph glyph-name="uni0E1A" unicode="&#xe1a;" horiz-adv-x="662" 
d="M449 547h154v-307q0 -70 -19.5 -119t-55.5 -80t-86 -45t-111 -14t-111 14t-86 45t-55.5 80t-19.5 119v307h154v-304q0 -70 26 -107t92 -37t92 37t26 107v304z" />
    <glyph glyph-name="uni0E1B" unicode="&#xe1b;" horiz-adv-x="662" 
d="M449 780h154v-540q0 -70 -19.5 -119t-55.5 -80t-86 -45t-111 -14t-111 14t-86 45t-55.5 80t-19.5 119v307h154v-304q0 -70 26 -107t92 -37t92 37t26 107v537z" />
    <glyph glyph-name="uni0E1C" unicode="&#xe1c;" horiz-adv-x="714" 
d="M494 0h1l-90 145q-18 31 -27.5 53t-17.5 44h-2q-8 -22 -17.5 -44t-27.5 -53l-90 -145h-161v404q0 81 40.5 118t121.5 37q57 0 94 -10v-105q-27 6 -53 6q-31 0 -43 -14t-12 -44v-103q0 -33 -2.5 -74t-9.5 -79h2q13 35 25.5 64.5t32.5 62.5l56 93h87l55 -93
q20 -33 32.5 -62.5t25.5 -64.5h2q-7 38 -9.5 79t-2.5 74v258h148v-547h-158z" />
    <glyph glyph-name="uni0E1D" unicode="&#xe1d;" horiz-adv-x="714" 
d="M494 0h1l-90 145q-18 31 -27.5 53t-17.5 44h-2q-8 -22 -17.5 -44t-27.5 -53l-90 -145h-161v404q0 81 40.5 118t121.5 37q57 0 94 -10v-105q-27 6 -53 6q-31 0 -43 -14t-12 -44v-103q0 -33 -2.5 -74t-9.5 -79h2q13 35 25.5 64.5t32.5 62.5l56 93h87l55 -93
q20 -33 32.5 -62.5t25.5 -64.5h2q-7 38 -9.5 79t-2.5 74v491h148v-780h-158z" />
    <glyph glyph-name="uni0E1E" unicode="&#xe1e;" horiz-adv-x="770" 
d="M498 0l-79 241q-6 18 -10.5 40t-8.5 45.5t-6.5 47t-4.5 43.5h-3q-2 -20 -4.5 -43.5t-6.5 -47t-8.5 -45.5t-10.5 -40l-79 -241h-157l-71 402q-5 30 -12 56t-13 46q-4 11 -7 22t-7 21h160l34 -247q5 -39 9.5 -84t6.5 -90h3q8 45 15 88.5t20 85.5l74 247h110l74 -247
q13 -42 20 -85.5t15 -88.5h3q2 45 6.5 90t9.5 84l34 247h146l-96 -547h-156z" />
    <glyph glyph-name="uni0E1F" unicode="&#xe1f;" horiz-adv-x="770" 
d="M500 0l-79 241q-6 18 -10.5 40t-8.5 45.5t-6.5 47t-4.5 43.5h-3q-2 -20 -4.5 -43.5t-6.5 -47t-8.5 -45.5t-10.5 -40l-79 -241h-157l-73 402q-5 30 -12 56t-13 46q-4 11 -7 22t-7 21h160l36 -247q5 -39 9.5 -84t6.5 -90h3q8 45 15 88.5t20 85.5l74 247h110l74 -247
q12 -42 19.5 -85.5t15.5 -88.5h3q2 45 3.5 90t6.5 84l51 480h144l-105 -780h-156z" />
    <glyph glyph-name="uni0E20" unicode="&#xe20;" horiz-adv-x="683" 
d="M470 0v321q0 30 -4 53.5t-15 39.5t-31 24t-53 8q-29 0 -52.5 -3.5t-46.5 -8.5v-283q0 -46 -10 -77t-30 -50t-49 -27.5t-68 -8.5q-29 0 -51 3.5t-44 10.5v105q27 -10 55 -10q23 0 33 12t10 41v368q21 7 50.5 15t63 14.5t70.5 11t73 4.5q124 0 188.5 -54.5t64.5 -183.5
v-325h-154z" />
    <glyph glyph-name="uni0E21" unicode="&#xe21;" horiz-adv-x="649" 
d="M436 547h154v-348q0 -106 -48 -160.5t-139 -54.5q-64 0 -109 24t-78 59h-2l-23 -67h-129v547h154v-370q23 -30 58.5 -53t78.5 -23q48 0 65.5 28t17.5 73v345z" />
    <glyph glyph-name="uni0E22" unicode="&#xe22;" horiz-adv-x="641" 
d="M428 547h154v-467q-48 -46 -118.5 -72t-170.5 -26q-50 0 -95.5 9t-80 30t-55 55t-20.5 84q0 40 19.5 70.5t54.5 47.5v2q-28 17 -48.5 47t-20.5 81q0 72 47.5 111.5t135.5 39.5q36 0 59 -3t35 -7v-111q-10 4 -23 7t-33 3q-14 0 -26.5 -1.5t-22.5 -6.5t-16 -14.5t-6 -25.5
q0 -22 21 -38.5t63 -16.5h62v-97h-129q-11 -16 -16 -31.5t-5 -30.5q0 -87 115 -87q36 0 66 8t54 20v420z" />
    <glyph glyph-name="uni0E23" unicode="&#xe23;" horiz-adv-x="558" 
d="M56 145q36 -19 90 -34.5t111 -15.5q48 0 75.5 14t27.5 42q0 15 -11 25.5t-28.5 18.5t-38 15t-39.5 15q-43 16 -78.5 31.5t-61.5 35.5t-40.5 46.5t-14.5 65.5q0 75 61 117t170 42q59 0 112 -13t85 -30v-118q-36 17 -84.5 32.5t-106.5 15.5q-93 0 -93 -38q0 -23 35 -38
t95 -38q39 -15 73 -29.5t58.5 -34.5t38.5 -49t14 -72q0 -84 -63 -126.5t-181 -42.5q-30 0 -60.5 4t-58 10.5t-50 14.5t-37.5 16v118z" />
    <glyph glyph-name="uni0E24" unicode="&#xe24;" horiz-adv-x="660" 
d="M447 -223v536q0 67 -26 100t-92 33q-31 0 -60.5 -3.5t-52.5 -8.5v-277q0 -37 12.5 -50.5t50.5 -13.5q17 0 34.5 3t40.5 11v-105q-20 -8 -48.5 -13t-66.5 -5q-39 0 -71.5 8.5t-56 28t-36.5 50.5t-13 76v371q21 7 51.5 15t66.5 14.5t75 11t78 4.5q62 0 112 -13t84.5 -42
t53 -75.5t18.5 -113.5v-542h-154z" />
    <glyph glyph-name="uni0E25" unicode="&#xe25;" horiz-adv-x="630" 
d="M419 0v249q-48 0 -90 -3.5t-72.5 -13.5t-48 -28t-17.5 -46q0 -32 18 -46.5t54 -14.5q21 0 39 3.5t41 12.5v-109q-20 -8 -47.5 -13t-58.5 -5q-44 0 -80 9.5t-62 29.5t-40.5 51t-14.5 74q0 66 35.5 105.5t91 60.5t122.5 27.5t130 6.5q0 28 -5.5 47t-19.5 31t-37.5 17
t-59.5 5q-57 0 -114.5 -15.5t-102.5 -38.5v125q38 17 97.5 29.5t124.5 12.5q61 0 111 -12t85 -38t54 -67.5t19 -100.5v-345h-152z" />
    <glyph glyph-name="uni0E26" unicode="&#xe26;" horiz-adv-x="683" 
d="M470 -223v544q0 30 -4 53.5t-15 39.5t-31 24t-53 8q-29 0 -52.5 -3.5t-46.5 -8.5v-283q0 -46 -10 -77t-30 -50t-49 -27.5t-68 -8.5q-29 0 -51 3.5t-44 10.5v105q27 -10 55 -10q23 0 33 12t10 41v368q21 7 50.5 15t63 14.5t70.5 11t73 4.5q124 0 188.5 -54.5t64.5 -183.5
v-548h-154z" />
    <glyph glyph-name="uni0E27" unicode="&#xe27;" horiz-adv-x="564" 
d="M45 144q27 -16 67 -30.5t94 -14.5q164 0 164 172q0 84 -36 129.5t-111 45.5q-63 0 -109.5 -16.5t-81.5 -37.5v127q33 16 85 30t122 14t123 -20.5t89 -58t54.5 -92t18.5 -121.5q0 -147 -79.5 -218t-217.5 -71q-66 0 -110 10t-72 24v128z" />
    <glyph glyph-name="uni0E28" unicode="&#xe28;" horiz-adv-x="680" 
d="M463 0v306q0 64 -29.5 102t-95.5 38q-69 0 -97 -35t-28 -105v-72q21 35 52 54.5t69 19.5q25 0 43 -6v-128q-12 3 -24 5t-29 2q-35 0 -64.5 -14.5t-46.5 -41.5v-125h-154v309q0 67 21.5 115t59 79t88.5 45.5t110 14.5q61 0 116 -20l45 51h163l-110 -111q65 -62 65 -174
v-309h-154z" />
    <glyph glyph-name="uni0E29" unicode="&#xe29;" horiz-adv-x="676" 
d="M605 267v-27q0 -70 -19.5 -119t-55.5 -80t-86.5 -45t-111.5 -14q-62 0 -112 14t-86 45t-55.5 80t-19.5 119v307h154v-304q0 -70 26.5 -107t92.5 -37t92.5 37t26.5 107v24h-125v107h125v173h154v-173h63v-107h-63z" />
    <glyph glyph-name="uni0E2A" unicode="&#xe2a;" horiz-adv-x="634" 
d="M419 0v249q-48 0 -90 -3.5t-72.5 -13.5t-48 -28t-17.5 -46q0 -32 18 -46.5t54 -14.5q21 0 39 3.5t41 12.5v-109q-20 -8 -47.5 -13t-58.5 -5q-44 0 -80 9.5t-62 29.5t-40.5 51t-14.5 74q0 66 35.5 105.5t91 60.5t122.5 27.5t130 6.5q0 52 -25.5 76t-96.5 24
q-57 0 -114.5 -15.5t-102.5 -38.5v125q38 17 97.5 29.5t124.5 12.5q31 0 59.5 -4t52.5 -13l43 48h163l-103 -105q54 -48 54 -144v-345h-152z" />
    <glyph glyph-name="uni0E2B" unicode="&#xe2b;" horiz-adv-x="654" 
d="M438 0v216q0 56 -27 77.5t-71 21.5q-35 0 -67.5 -8t-56.5 -19v-288h-154v547h154v-145q28 12 67.5 20t90.5 8l82 117h162l-106 -154q80 -53 80 -169v-224h-154z" />
    <glyph glyph-name="uni0E2C" unicode="&#xe2c;" horiz-adv-x="714" 
d="M491 0l-90 145q-18 31 -27.5 53t-17.5 44h-2q-8 -22 -17.5 -44t-27.5 -53l-90 -145h-157v547h148v-258q0 -33 -2.5 -74t-9.5 -79h2q13 35 25.5 64.5t32.5 62.5l55 93h87l56 -93q20 -33 32.5 -62.5t25.5 -64.5h2q-7 38 -9.5 79t-2.5 74v107q0 35 -12 49.5t-43 14.5
q-19 0 -37.5 -2.5t-35.5 -6.5v105q17 5 42.5 8t54.5 5l71 98h160l-108 -126q56 -41 56 -137v-404h-161z" />
    <glyph glyph-name="uni0E2D" unicode="&#xe2d;" horiz-adv-x="639" 
d="M194 220q-2 -8 -4 -17t-2 -20q0 -46 29.5 -66.5t88.5 -20.5q68 0 103.5 47.5t35.5 130.5t-43.5 129t-126.5 46q-66 0 -120 -16.5t-96 -39.5v127q36 15 96.5 29t132.5 14q74 0 132 -20t97.5 -57.5t60.5 -91t21 -120.5q0 -75 -22.5 -130t-61.5 -91t-92 -53.5t-114 -17.5
q-60 0 -109.5 12t-85 37t-55 64t-19.5 92q0 17 3 36.5t7.5 38.5t11 36t13.5 28h185v-106h-66z" />
    <glyph glyph-name="uni0E2E" unicode="&#xe2e;" horiz-adv-x="642" 
d="M194 220q-2 -8 -4 -17t-2 -20q0 -46 29.5 -66.5t88.5 -20.5q68 0 103.5 47.5t35.5 130.5q0 81 -45.5 128t-124.5 47q-66 0 -120 -16.5t-96 -39.5v127q36 15 96.5 29t132.5 14q32 0 61.5 -5t56.5 -14l45 50h163l-107 -108q46 -37 69 -91.5t23 -120.5q0 -75 -22.5 -130
t-61.5 -91t-92 -53.5t-114 -17.5q-60 0 -109.5 12t-85 37t-55 64t-19.5 92q0 17 3 36.5t7.5 38.5t11 36t13.5 28h185v-106h-66z" />
    <glyph glyph-name="uni0E2F" unicode="&#xe2f;" horiz-adv-x="571" 
d="M356 -80v480q-30 -35 -69 -55t-93 -20q-73 0 -113.5 35.5t-40.5 110.5q0 23 3.5 44.5t6.5 31.5h129q-3 -8 -6 -24t-3 -32q0 -17 13 -32.5t42 -15.5q27 0 48 9t36.5 23.5t27 33t19.5 38.5h154v-627h-154z" />
    <glyph glyph-name="uni0E30" unicode="&#xe30;" horiz-adv-x="426" 
d="M193 335q-67 0 -106 26.5t-39 86.5q0 20 4 40.5t11 38.5h133q-5 -12 -6.5 -21t-1.5 -19q0 -38 39 -38h153v-114h-187zM193 52q-67 0 -106 26.5t-39 86.5q0 20 4 40.5t11 38.5h133q-5 -12 -6.5 -21t-1.5 -19q0 -38 39 -38h153v-114h-187z" />
    <glyph glyph-name="uni0E31" unicode="&#xe31;" 
d="M-237 626q-75 0 -111.5 31.5t-36.5 89.5q0 15 4 33.5t14 40.5h133q-5 -11 -7.5 -24t-2.5 -22q0 -18 8.5 -29.5t30.5 -11.5h267v-108h-299z" />
    <glyph glyph-name="uni0E32" unicode="&#xe32;" horiz-adv-x="513" 
d="M300 0v333q0 113 -113 113q-54 0 -96.5 -16t-76.5 -37v121q32 18 83.5 33.5t123.5 15.5q46 0 88.5 -12t74.5 -38t51 -68t19 -103v-342h-154z" />
    <glyph glyph-name="uni0E33" unicode="&#xe33;" horiz-adv-x="513" 
d="M-8 726q0 -51 -34 -86t-97 -35t-97 35t-34 86t34 85t97 34t97 -34t34 -85zM300 0v333q0 113 -113 113q-54 0 -96.5 -16t-76.5 -37v121q32 18 83.5 33.5t123.5 15.5q46 0 88.5 -12t74.5 -38t51 -68t19 -103v-342h-154zM-139 682q18 0 30 12.5t12 30.5t-12 30.5t-30 12.5
t-30 -12.5t-12 -30.5t12 -30.5t30 -12.5z" />
    <glyph glyph-name="uni0E34" unicode="&#xe34;" 
d="M-560 626v110h501v-110h-501z" />
    <glyph glyph-name="uni0E35" unicode="&#xe35;" 
d="M-560 626v110h365l-4 88h140v-198h-501z" />
    <glyph glyph-name="uni0E36" unicode="&#xe36;" 
d="M-560 626v110h278q0 46 31 77.5t89 31.5q57 0 88 -31.5t31 -77.5q0 -48 -31 -79t-88 -31h-398zM-162 692q17 0 29.5 13t12.5 30q0 18 -12.5 31t-29.5 13q-18 0 -30.5 -13t-12.5 -31q0 -17 12.5 -30t30.5 -13z" />
    <glyph glyph-name="uni0E37" unicode="&#xe37;" 
d="M-560 626v110h219l-4 88h116v-92h58l-4 92h116v-198h-501z" />
    <glyph glyph-name="uni0E38" unicode="&#xe38;" 
d="M-199 -276v87q0 30 -38 30q-6 0 -16.5 -1t-18.5 -3v92q22 4 52 7t51 3q57 0 83.5 -23.5t26.5 -77.5v-114h-140z" />
    <glyph glyph-name="uni0E39" unicode="&#xe39;" 
d="M-59 -165q0 -36 -13 -60t-35.5 -38.5t-53.5 -20.5t-66 -6t-65.5 6t-53.5 20.5t-36 38.5t-13 60v4h-52v89h180v-84q0 -26 11 -35t29 -9t29 9t11 35v84h128v-93z" />
    <glyph glyph-name="uni0E3A" unicode="&#xe3a;" 
d="M-43 -150q0 -18 -7.5 -34t-20 -28.5t-29.5 -19.5t-36 -7q-20 0 -37 7t-30 19.5t-20.5 28.5t-7.5 34t7.5 34.5t20.5 28.5t30 19t37 7q19 0 36 -7t29.5 -19t20 -28.5t7.5 -34.5z" />
    <glyph glyph-name="uni0E3F" unicode="&#xe3f;" horiz-adv-x="652" 
d="M282 -100v100h-216v610h216v100h80v-100q48 0 86 -8t67 -26t47.5 -47.5t18.5 -74.5q0 -48 -22.5 -80.5t-48.5 -49.5v-2q19 -6 37 -17t32.5 -29t23.5 -43t9 -58q0 -47 -18 -80.5t-50.5 -54.5t-77.5 -30.5t-98 -9.5h-6v-100h-80zM355 117q17 0 34.5 2t32 9.5t23.5 21
t9 37.5q0 22 -8 34.5t-22 18.5t-33 7.5t-41 1.5h-131v-132h136zM409 366q6 11 10.5 28.5t4.5 37.5q0 33 -17 47t-62 14h-126v-127h190z" />
    <glyph glyph-name="uni0E40" unicode="&#xe40;" horiz-adv-x="280" 
d="M64 0v547h152v-547h-152z" />
    <glyph glyph-name="uni0E41" unicode="&#xe41;" horiz-adv-x="530" 
d="M64 0v547h152v-547h-152zM314 0v547h152v-547h-152z" />
    <glyph glyph-name="uni0E42" unicode="&#xe42;" horiz-adv-x="354" 
d="M128 0v554q0 61 -30 107t-107 69v107q45 20 102 34t123 14q68 0 111.5 -6t75.5 -14v-115q-38 12 -80.5 18t-81.5 6q-32 0 -57 -3t-45 -8q72 -29 106.5 -90.5t34.5 -135.5v-537h-152z" />
    <glyph glyph-name="uni0E43" unicode="&#xe43;" horiz-adv-x="354" 
d="M128 0v512q0 30 17.5 57t38.5 52.5t38.5 50t17.5 50.5q0 23 -14.5 37.5t-56.5 14.5q-40 0 -86.5 -17t-88.5 -52v126q29 23 75.5 38.5t109.5 15.5q53 0 91.5 -12t63 -32.5t36.5 -47.5t12 -57q0 -39 -16 -68t-35 -54.5t-35 -51.5t-16 -58v-504h-152z" />
    <glyph glyph-name="uni0E44" unicode="&#xe44;" horiz-adv-x="354" 
d="M128 0v506q0 43 10.5 79.5t28 67.5t41.5 56.5t51 46.5l-1 3q-28 -12 -58 -16t-72 -4t-77 8.5t-65 22.5v108q43 -17 77.5 -26t80.5 -9q84 0 162 32h84v-111q-33 -24 -54.5 -51t-34 -57.5t-17 -64t-4.5 -69.5v-522h-152z" />
    <glyph glyph-name="uni0E45" unicode="&#xe45;" horiz-adv-x="513" 
d="M300 -223v556q0 113 -113 113q-54 0 -96.5 -16t-76.5 -37v121q32 18 83.5 33.5t123.5 15.5q46 0 88.5 -12t74.5 -38t51 -68t19 -103v-565h-154z" />
    <glyph glyph-name="uni0E46" unicode="&#xe46;" horiz-adv-x="688" 
d="M444 -213v514q0 49 -4.5 85.5t-32.5 52.5l-90 -58l-94 57q-10 -10 -20.5 -28t-10.5 -50q0 -35 16 -49.5t45 -14.5q17 0 34 2.5t28 6.5v-121q-6 -2 -16.5 -4t-21.5 -3.5t-21.5 -2t-17.5 -0.5q-53 0 -88 14.5t-56 39.5t-30 59t-9 72q0 39 13 72t35.5 59t52.5 44.5t63 28.5
l98 -68l106 69q90 -20 130 -86t40 -169v-522h-149z" />
    <glyph glyph-name="uni0E47" unicode="&#xe47;" 
d="M-187 626q-21 0 -47 14.5t-40 36.5q-14 -21 -38 -38t-69 -17q-29 0 -54 10t-43.5 29t-29 45t-10.5 58q0 33 12.5 58.5t34.5 43.5t52.5 27t67.5 9h242v-96h-239q-29 0 -42.5 -11.5t-13.5 -30.5q0 -11 4.5 -19t11.5 -12.5t14.5 -6.5t13.5 -2q27 0 40.5 13.5t16.5 30.5h59
q4 -18 20 -30t43 -12h72v-100h-78z" />
    <glyph glyph-name="uni0E48" unicode="&#xe48;" 
d="M-191 869l-4 189h136l-4 -189h-128z" />
    <glyph glyph-name="uni0E49" unicode="&#xe49;" 
d="M-287 869v68q14 4 29 9t27.5 11.5t20.5 16t8 21.5q0 26 -36 26q-11 0 -24.5 -1.5t-24.5 -5.5v72q17 5 39 10t49 5q42 0 67.5 -19t25.5 -54q0 -28 -10.5 -45t-21.5 -27l155 8v-95h-304z" />
    <glyph glyph-name="uni0E4A" unicode="&#xe4a;" 
d="M-130 869v53q0 16 -3.5 25.5t-14.5 9.5q-13 0 -18.5 -10.5t-7.5 -22.5h-50q-2 12 -7.5 22.5t-18.5 10.5q-11 0 -14.5 -9.5t-3.5 -25.5v-53h-110v83q0 40 25.5 70t70.5 30q32 0 53.5 -14.5t29.5 -37.5q8 23 29.5 37.5t54.5 14.5q48 0 71 -28t20 -71l66 5v-89h-172z" />
    <glyph glyph-name="uni0E4B" unicode="&#xe4b;" 
d="M-74 945l2 -76h-113l2 76l-80 -2v87l80 -2l-2 76h113l-2 -76l82 2v-87z" />
    <glyph glyph-name="uni0E4C" unicode="&#xe4c;" 
d="M-146 859q-37 0 -37 -30q0 -17 9 -41h-127q-8 17 -11 35t-3 30q0 45 29 77t93 32h185v-103h-138z" />
    <glyph glyph-name="uni0E4D" unicode="&#xe4d;" 
d="M-8 726q0 -51 -34 -86t-97 -35t-97 35t-34 86t34 85t97 34t97 -34t34 -85zM-139 682q18 0 30 12.5t12 30.5t-12 30.5t-30 12.5t-30 -12.5t-12 -30.5t12 -30.5t30 -12.5z" />
    <glyph glyph-name="uni0E4E" unicode="&#xe4e;" horiz-adv-x="1170" 
d="M1070 555v-555l-485 -276l-485 276v555l485 277zM614 779l310 -479l93 248zM153 548l93 -248l310 479zM129 18l98 251v2l-98 261v-514zM556 -230l-310 469l-93 -239zM261 269l324 -492l324 492l-324 501zM1018 0l-94 239l-310 -469zM1041 532l-98 -263l98 -251v514z
M415 300q2 -2 5 -4t4 -4q0 -5 1 -8q-20 -23 -36.5 -29t-25.5 -6q18 12 32.5 28.5t19.5 22.5zM450 199q8 0 10 -14t-1 -27q-5 -14 -14 -19.5t-21 -5.5q-15 1 -22.5 10.5t-10.5 21.5t-4 22.5t-2 15.5q-2 8 -2 19t-1 23h1q8 3 18 9.5t21 17.5q4 -19 2.5 -38t-4.5 -33
q-1 -4 -1.5 -11t0.5 -13.5t2.5 -12.5t5.5 -7q7 -2 9 3t3 8q1 8 -1.5 10.5t-4.5 6.5q-2 5 5.5 9.5t11.5 4.5zM558 212q1 1 1.5 4t2.5 6q1 4 3 8q-1 -2 -0.5 -8.5t0.5 -14.5q0 -9 1 -19q-6 1 -11 6q-3 2 -4 3q1 2 3 5q1 2 2 5t2 5zM765 173q2 5 5 8t5 9v-6v-6t-2 -8
q-3 -8 -5 -22t-2 -22q2 -8 2.5 -14t-4.5 -8q1 1 1 4q0 2 -2 12q-5 11 -3 30q1 4 2 11t3 12zM553 125q4 -4 9 -2q3 0 6 2q0 -8 1.5 -13.5t-0.5 -10.5q-1 3 -4 7t-9 2q-3 0 -7 -8q-2 8 -8 8q-5 0 -6.5 -3t-3.5 -6l-4 6l-6 3q-3 0 -5.5 -3.5t-4.5 -5.5q-2 7 2 22q1 3 0.5 8.5
t-0.5 10.5q-1 6 -1 13q14 -6 25 -16t16 -14zM576 168q2 2 10 2q1 -4 -2 -13q-8 6 -8 11zM568 155q2 2 6 1t7 -3l-2 -4q-1 -2 -2 -3t-2 -3q-7 5 -7 12zM562 141q2 1 10 -3q-5 -5 -9 -6q-2 2 -3.5 5t0.5 3zM558 106q5 2 7 -6q-2 -4 -13 -6q2 12 6 12zM541 105q2 0 3 -3.5
t3 -7.5h-6h-8q0 4 2.5 7.5t5.5 3.5zM524 104q4 -4 4 -9q-10 2 -13 4q6 8 7 7zM748 106q3 1 7 -6q-2 -2 -5 -3.5t-9 -2.5q3 12 7 12zM730 105q2 0 4 -3.5t3 -7.5h-6h-8q1 4 3 7.5t4 3.5zM713 105q3 -3 5 -10q-5 2 -8.5 2.5t-5.5 1.5q3 8 6 7zM798 241q1 -3 3 -7q1 -3 2 -7.5
t1 -9.5t-1 -9.5t-2 -8.5l-2 -8q-3 4 -6 10q-2 5 -3.5 14t-0.5 23q1 15 0 28q-1 11 -2.5 23t-4.5 20q-2 -13 -5 -24l-4 -20t-4 -15q-3 -10 -1.5 -24t3.5 -21q2 -8 -3 -13t-9 -16q-3 -8 -4.5 -17t-1.5 -14q0 -7 1 -15.5t5 -17.5q2 -8 0 -10q-2 3 -4.5 6t-7.5 2q-4 0 -8 -8
q-2 8 -9 8q-5 0 -10 -7l-2 6l-7 2q-4 0 -6.5 -3t-4.5 -6q-2 4 -1 9q4 17 7.5 38t-2.5 34q-3 6 -10 14.5t-14.5 19t-13 22t-6.5 25.5q-1 -1 -2 -4q-2 -6 2 -17q-12 -2 -25 -1q-12 1 -27.5 3t-33.5 8q0 2 1 5q1 2 1.5 5.5t2.5 8.5q-2 -4 -6 -8q-3 -4 -6.5 -10.5t-5.5 -15.5
q-2 -6 -8 -19.5t-8 -18.5t7 -11.5t14 -8.5l8 -2t7 -3q-6 0 -9 -5v-2q0 -3 4 -9q-8 2 -10 -2l-1 -4q0 -5 3 -8h-7l-5 -2q-2 -7 2 -12q-2 2 -5 3.5t-7 4.5q-5 4 -11.5 9t-13 9.5t-12 7.5t-7.5 3q-4 2 -10 8.5t-5 23.5q1 8 3 22t3.5 28.5t3.5 27t3 17.5q-2 0 -3 -2
q-1 -1 -5 -11l-16 25q5 3 8.5 8t5.5 9l6 -9l4 -6l4 3q0 1 4.5 6.5t6.5 11.5q5 12 7 27l1.5 7.5t1.5 4.5l3 7l5 12.5t4.5 16t0 17t-8.5 16.5q-8 7 -15.5 9.5t-14.5 2.5q-8 0 -15 -2l5 -0.5t11 -2t12.5 -4t10.5 -7.5q8 -9 8 -22q0 -10 -3.5 -18t-5.5 -16l-3 -7q-1 -2 -1.5 -5
t-2.5 -8q-2 -12 -5 -26q-2 -2 -4.5 -6t-4.5 -7q-3 3 -7 11q-2 4 -4 7l-3 -5q-2 -3 -6.5 -10.5t-9.5 -10.5q-7 -3 -12 -5t-9 -6q-2 -2 -4.5 -5t-4.5 -11q-1 -3 -2.5 -4.5l-3.5 -3.5t-4 -2v2q0 1 -0.5 2.5t-0.5 3.5q-1 2 -0.5 5t0.5 5v4l-16 13l-3 -2q-4 -6 -9 -12
q-5 -5 -11 -12t-13 -14q-1 2 -1 3.5t-1 3.5q-1 -2 -5 -4q-3 -2 -8 -3.5t-13 -1.5q15 11 21 19q3 4 3 6q-1 9 -1 17.5v15.5q0 8 1 16q-1 7 -1.5 22t1.5 23t4.5 15.5t7.5 23.5q6 14 15 18q4 2 10 2q5 6 10 11t10.5 8.5t12.5 4.5q21 2 36.5 -1t28.5 -1q6 1 16 3t21.5 4t22.5 3
t20 0q8 -1 25 -4.5t36.5 -9t37.5 -12.5t29 -15q10 -9 22.5 -19.5t23.5 -24.5t19.5 -31.5t10.5 -40.5t3 -38t2 -24v-17zM450 383q0 2 1.5 3.5l3.5 3.5t4 5q-2 1 -5 1q-6 0 -10 -5q-4 -3 -4 -11q0 -4 1 -7l3 3q2 2 3 3.5t3 3.5zM521 423q-4 6 -8 8t-9 3t-10 0q18 -5 22 -16
q2 -10 2 -17q0 -5 -1 -10q3 5 5 10t2 10.5t-3 11.5z" />
    <glyph glyph-name="uni0E4F" unicode="&#xe4f;" horiz-adv-x="584" 
d="M520 248q0 -50 -18.5 -91.5t-50 -71.5t-73.5 -47t-88 -17q-47 0 -88.5 17t-73 47t-50 71.5t-18.5 91.5q0 49 18.5 90.5t50 71.5t73 46.5t88.5 16.5q46 0 88 -16.5t73.5 -46.5t50 -71.5t18.5 -90.5zM290 56q40 0 74.5 15t60.5 41t41 61t15 75q0 39 -15 73.5t-41 60.5
t-60.5 41t-74.5 15q-39 0 -74 -15t-61 -41t-41 -60.5t-15 -73.5q0 -40 15 -75t41 -61t61 -41t74 -15zM290 156q38 0 64.5 26.5t26.5 64.5t-26.5 64.5t-64.5 26.5t-64.5 -26.5t-26.5 -64.5t26.5 -64.5t64.5 -26.5zM290 113q-28 0 -52.5 10.5t-42.5 29t-28.5 43t-10.5 52.5
q0 27 10.5 51t28.5 42.5t42.5 29t52.5 10.5t52.5 -10.5t42.5 -29t28.5 -42.5t10.5 -51q0 -28 -10.5 -52.5t-28.5 -43t-42.5 -29t-52.5 -10.5z" />
    <glyph glyph-name="uni0E50" unicode="&#xe50;" horiz-adv-x="642" 
d="M606 236q0 -64 -23 -111.5t-62.5 -79t-91 -47.5t-108.5 -16t-108.5 16t-91 47.5t-62.5 79t-23 111.5t23 111.5t62.5 79t91 47.5t108.5 16t108.5 -16t91 -47.5t62.5 -79t23 -111.5zM321 94q66 0 100.5 36.5t34.5 105.5t-34.5 105.5t-100.5 36.5t-100.5 -36.5t-34.5 -105.5
t34.5 -105.5t100.5 -36.5z" />
    <glyph glyph-name="uni0E51" unicode="&#xe51;" horiz-adv-x="647" 
d="M245 -112v112h21q38 0 73 11.5t61.5 36.5t42.5 64t16 94q0 94 -38 133.5t-113 39.5q-66 0 -96 -29t-30 -75q0 -48 21.5 -73.5t60.5 -25.5q29 0 44.5 3t34.5 11v-102q-21 -11 -47.5 -16.5t-50.5 -5.5q-47 0 -85.5 15t-66 42.5t-42.5 65.5t-15 84q0 52 21.5 92.5t59.5 68.5
t89 42.5t111 14.5t113 -14.5t92.5 -48t63 -88t23.5 -134.5q0 -77 -26.5 -136t-71.5 -99.5t-104.5 -61.5t-126.5 -21h-35z" />
    <glyph glyph-name="uni0E52" unicode="&#xe52;" horiz-adv-x="751" 
d="M557 306q0 59 -41 70l-54 -43l-62 45q-14 -5 -23.5 -19t-9.5 -39q0 -29 14.5 -42.5t37.5 -13.5q7 0 17 1t19 3v-93q-17 -4 -34 -5.5t-31 -1.5q-36 0 -63 11.5t-44.5 31.5t-26 47t-8.5 57q0 39 11.5 68t31 50t45.5 35t56 22l70 -58l70 59q42 -6 72.5 -23t50.5 -41t30 -54
t10 -61v-291q-66 -21 -143.5 -30t-177.5 -9q-82 0 -141 9t-97.5 30t-57 55t-18.5 84v430h148v-407q0 -26 11 -43.5t33 -27.5t54 -14t73 -4q51 0 97 1.5t81 9.5v201z" />
    <glyph glyph-name="uni0E53" unicode="&#xe53;" horiz-adv-x="682" 
d="M480 0v315q0 35 -10 49.5t-30 14.5q-21 0 -31 -16.5t-10 -46.5v-107h-114v107q0 30 -11 46.5t-32 16.5q-20 0 -31 -14.5t-11 -49.5v-155q0 -29 15 -47t54 -18q24 0 41 3t37 10v-103q-20 -8 -47.5 -13t-63.5 -5q-94 0 -138 44.5t-44 128.5v157q0 48 12.5 81t34.5 53.5
t51 30t61 9.5q48 0 79.5 -20.5t48.5 -55.5q20 35 53 55.5t84 20.5q30 0 57 -9.5t47.5 -30t32 -53.5t11.5 -81v-317h-146z" />
    <glyph glyph-name="uni0E54" unicode="&#xe54;" horiz-adv-x="620" 
d="M528 0q-60 0 -102 18t-62 45q-12 -23 -41 -43t-90 -20h-66q-24 16 -47.5 39t-42 53.5t-30 68.5t-11.5 84q0 123 70.5 180t205.5 57h87q26 0 42.5 4t25.5 13t12.5 24t3.5 36v31h110q3 -11 5.5 -19.5t4 -18t2.5 -21t1 -28.5q0 -27 -11.5 -52t-35 -43.5t-58.5 -30t-82 -11.5
h-94q-69 0 -105 -28t-36 -94q0 -37 12 -70t33 -56h22q26 0 44 7t32 17q-8 11 -10 22.5t-2 23.5q0 59 40.5 85.5t104.5 26.5q14 0 32 -1.5t31 -3.5v-98h-31q-23 0 -36 -8.5t-13 -29.5q0 -22 24.5 -37.5t72.5 -15.5h41v-106h-53z" />
    <glyph glyph-name="uni0E55" unicode="&#xe55;" horiz-adv-x="628" 
d="M536 0q-60 0 -102 18t-62 45q-12 -23 -41 -43t-90 -20h-74q-24 16 -47.5 39t-42 53.5t-30 68.5t-11.5 84q0 88 37.5 142t109.5 77q-1 7 -1.5 13.5t-0.5 14.5q0 51 34.5 86.5t100.5 35.5t100.5 -35.5t34.5 -86.5v-6q24 2 32 19t8 54v31h110q7 -19 10 -34t3 -43
q0 -72 -45.5 -109.5t-141.5 -37.5h-102q-69 0 -105 -28t-36 -94q0 -37 12 -70t33 -56h30q26 0 44 7t32 17q-8 11 -10 22.5t-2 23.5q0 59 40.5 85.5t104.5 26.5q14 0 32 -1.5t31 -3.5v-98h-31q-23 0 -36 -8.5t-13 -29.5q0 -22 24.5 -37.5t72.5 -15.5h41v-106h-53zM316 446
q19 0 31 13t12 32q0 18 -12 31t-31 13t-31 -13t-12 -31q0 -19 12 -32t31 -13z" />
    <glyph glyph-name="uni0E56" unicode="&#xe56;" horiz-adv-x="639" 
d="M69 316q-11 85 -28 150.5t-41 123.5h153l28 -169q29 29 74.5 49t105.5 20q49 0 93 -15t77 -45.5t52.5 -77t19.5 -110.5q0 -66 -20.5 -114.5t-58 -81t-90 -48.5t-116.5 -16q-55 0 -102 11t-82 33.5t-55 56.5t-20 80q0 14 2 33t6 35h150q-4 -11 -5.5 -26.5t-1.5 -25.5
q0 -37 26 -61t83 -24q63 0 98.5 39.5t35.5 108.5t-33.5 102.5t-94.5 33.5q-91 0 -132 -62h-124z" />
    <glyph glyph-name="uni0E57" unicode="&#xe57;" horiz-adv-x="850" 
d="M652 610h138v-443q0 -53 -13 -88.5t-38 -56.5t-62.5 -29.5t-85.5 -8.5q-42 0 -81.5 5.5t-77.5 18.5v307q0 35 -7.5 49.5t-24.5 14.5q-18 0 -25.5 -16.5t-7.5 -46.5v-47h-98v47q0 30 -8.5 46.5t-26.5 16.5q-17 0 -25.5 -14.5t-8.5 -49.5v-155q0 -29 13 -47t48 -18
q18 0 35 2.5t35 8.5v-103q-20 -8 -43.5 -12t-59.5 -4q-93 0 -133.5 45t-40.5 128v157q0 48 11.5 81t32 53.5t47 30t56.5 9.5q42 0 70.5 -20t45.5 -48q19 28 49 48t76 20q27 0 50.5 -9.5t41.5 -30t28 -53.5t10 -81v-221q5 -2 14 -3t14 -1q52 0 52 41v477z" />
    <glyph glyph-name="uni0E58" unicode="&#xe58;" horiz-adv-x="670" 
d="M447 315q10 2 24 3t24 1q33 0 59.5 -8.5t45.5 -28t29.5 -51t10.5 -77.5q0 -33 -8.5 -62.5t-26.5 -51.5t-46.5 -35t-67.5 -13q-58 0 -92 27t-46 72q-16 -36 -51 -63.5t-89 -27.5h-56q-24 16 -46 39t-38.5 53.5t-26.5 68.5t-10 84q0 123 70.5 180t205.5 57h97q26 0 42.5 4
t25.5 13t12.5 24t3.5 36v31h110q5 -19 9 -34t4 -43q0 -31 -11.5 -57.5t-35 -46.5t-58.5 -31.5t-82 -11.5h-104q-69 0 -105 -28t-36 -94q0 -37 7 -70t28 -56h12q19 0 32.5 8t23 20t15 26.5t7.5 26.5h88q2 -14 7 -30.5t14 -31.5t22.5 -25t32.5 -10q20 0 31.5 14.5t11.5 48.5
q0 29 -12.5 43t-29.5 14q-7 0 -14.5 -1t-12.5 -3v97z" />
    <glyph glyph-name="uni0E59" unicode="&#xe59;" horiz-adv-x="684" 
d="M446 0l-167 336q-11 21 -19.5 32t-24.5 11q-17 0 -26 -14.5t-9 -49.5v-127q0 -51 16 -72t52 -21q26 0 62 12v-103q-42 -17 -96 -17q-88 0 -134 47t-46 146v137q0 48 13 81t35.5 53.5t54 30t67.5 9.5q39 0 73 -13.5t54 -39.5q14 22 37.5 37.5t62.5 15.5q51 0 78 -29
t27 -80v-17q11 0 17 12t6 40v153h105v-145q0 -75 -29 -106.5t-86 -31.5h-93v53q0 26 -8 42.5t-30 16.5q-15 0 -27.5 -9t-18.5 -20l181 -370h-127z" />
    <glyph glyph-name="uni0E5B" unicode="&#xe5b;" horiz-adv-x="1202" 
d="M1182 146q-19 0 -44 5.5t-49.5 18.5t-46 35.5t-33.5 55.5l-35 -138h-88l-56 163l-48 -188h-80l-68 203q-3 -45 -20.5 -93.5t-52.5 -88.5t-91 -66t-135 -26q-55 0 -106.5 15t-91 46.5t-63.5 80t-24 115.5t21.5 113.5t55 75.5t74 42.5t78.5 13.5q42 0 78 -11t62.5 -32.5
t41.5 -53t15 -71.5q0 -48 -16.5 -79t-44 -49.5t-62.5 -25.5t-72 -7v106q6 0 15.5 1t19 6t16.5 15t7 28q0 33 -15.5 47t-40.5 14q-12 0 -28 -4.5t-30.5 -18.5t-24.5 -40.5t-10 -69.5q0 -42 14 -70t35 -44.5t46 -23t47 -6.5q61 0 103 23t68 61.5t37.5 87.5t11.5 101v18.5
t-1 18.5h126l66 -199l36 162h87l57 -177l34 149h78q10 -49 28 -79t39 -46.5t42 -22t38 -5.5v-86z" />
    <glyph glyph-name="endash" unicode="&#x2013;" horiz-adv-x="493" 
d="M30 244v112h433v-112h-433z" />
    <glyph glyph-name="emdash" unicode="&#x2014;" horiz-adv-x="843" 
d="M30 244v112h783v-112h-783z" />
    <glyph glyph-name="quoteleft" unicode="&#x2018;" horiz-adv-x="251" 
d="M206 643q-23 -21 -40.5 -51t-17.5 -53q22 -3 42.5 -23t20.5 -54q0 -32 -22 -54.5t-57 -22.5q-23 0 -39 7t-26 19t-14.5 27t-4.5 31q0 33 10.5 63t26.5 55.5t35 44.5t36 30z" />
    <glyph glyph-name="quoteright" unicode="&#x2019;" horiz-adv-x="251" 
d="M45 404q23 21 40.5 51t17.5 53q-22 3 -42.5 23t-20.5 54q0 32 22 54.5t57 22.5q23 0 39 -7t26 -19t14.5 -27t4.5 -31q0 -33 -10.5 -63t-27 -55t-35.5 -44.5t-35 -30.5z" />
    <glyph glyph-name="quotesinglbase" unicode="&#x201a;" horiz-adv-x="251" 
d="M45 -97q23 21 40.5 51t17.5 53q-22 3 -42.5 23t-20.5 54q0 32 22 54.5t57 22.5q23 0 39 -7t26 -19t14.5 -27t4.5 -31q0 -33 -10.5 -63t-27 -55t-35.5 -44.5t-35 -30.5z" />
    <glyph glyph-name="quotedblleft" unicode="&#x201c;" horiz-adv-x="452" 
d="M409 643q-23 -21 -40.5 -51t-17.5 -53q22 -3 42.5 -23t20.5 -54q0 -32 -22 -54.5t-57 -22.5q-23 0 -39 7t-26 19t-14.5 27t-4.5 31q0 33 10.5 63t26.5 55.5t35 44.5t36 30zM202 643q-23 -21 -40.5 -51t-17.5 -53q22 -3 42.5 -23t20.5 -54q0 -32 -22 -54.5t-57 -22.5
q-23 0 -39 7t-26 19t-14.5 27t-4.5 31q0 33 10.5 63t26.5 55.5t35 44.5t36 30z" />
    <glyph glyph-name="quotedblright" unicode="&#x201d;" horiz-adv-x="452" 
d="M43 404q23 21 40.5 51t17.5 53q-22 3 -42.5 23t-20.5 54q0 32 22 54.5t57 22.5q23 0 39 -7t26 -19t14.5 -27t4.5 -31q0 -33 -10.5 -63t-27 -55t-35.5 -44.5t-35 -30.5zM250 404q23 21 40.5 51t17.5 53q-22 3 -42.5 23t-20.5 54q0 32 22 54.5t57 22.5q23 0 39 -7t26 -19
t14.5 -27t4.5 -31q0 -33 -10.5 -63t-27 -55t-35.5 -44.5t-35 -30.5z" />
    <glyph glyph-name="quotedblbase" unicode="&#x201e;" horiz-adv-x="458" 
d="M45 -97q23 21 40.5 51t17.5 53q-22 3 -42.5 23t-20.5 54q0 32 22 54.5t57 22.5q23 0 39 -7t26 -19t14.5 -27t4.5 -31q0 -33 -10.5 -63t-27 -55t-35.5 -44.5t-35 -30.5zM252 -97q23 21 40.5 51t17.5 53q-22 3 -42.5 23t-20.5 54q0 32 22 54.5t57 22.5q23 0 39 -7t26 -19
t14.5 -27t4.5 -31q0 -33 -10.5 -63t-27 -55t-35.5 -44.5t-35 -30.5z" />
    <glyph glyph-name="dagger" unicode="&#x2020;" horiz-adv-x="520" 
d="M205 -260v604h-175v106h175v200h110v-200h175v-106h-175v-604h-110z" />
    <glyph glyph-name="daggerdbl" unicode="&#x2021;" horiz-adv-x="520" 
d="M205 -261v200h-175v106h175v299h-175v106h175v200h110v-200h175v-106h-175v-299h175v-106h-175v-200h-110z" />
    <glyph glyph-name="bullet" unicode="&#x2022;" horiz-adv-x="386" 
d="M341 315q0 -30 -11.5 -57t-31 -47t-47 -32t-58.5 -12q-29 0 -56 11t-47.5 31t-32.5 47t-12 59q0 30 11.5 56.5t31 47t46.5 32.5t59 12q29 0 56 -11t47.5 -31t32.5 -47t12 -59z" />
    <glyph glyph-name="ellipsis" unicode="&#x2026;" horiz-adv-x="840" 
d="M141 -13q-20 0 -37.5 7.5t-31 20.5t-21 30.5t-7.5 37.5q0 42 28.5 69t68.5 27q20 0 37.5 -8t30 -21.5t20 -30.5t7.5 -36q0 -42 -27.5 -69t-67.5 -27zM421 -13q-20 0 -37.5 7.5t-31 20.5t-21 30.5t-7.5 37.5q0 42 28.5 69t68.5 27q20 0 37.5 -8t30 -21.5t20 -30.5t7.5 -36
q0 -42 -27.5 -69t-67.5 -27zM701 -13q-20 0 -37.5 7.5t-31 20.5t-21 30.5t-7.5 37.5q0 42 28.5 69t68.5 27q20 0 37.5 -8t30 -21.5t20 -30.5t7.5 -36q0 -42 -27.5 -69t-67.5 -27z" />
    <glyph glyph-name="perthousand" unicode="&#x2030;" horiz-adv-x="1048" 
d="M189 0h-101l456 610h100zM338 475q0 -31 -10.5 -58t-30 -46.5t-47.5 -31t-63 -11.5t-63 11.5t-47.5 31t-30 46.5t-10.5 58t10.5 58.5t30 47.5t47.5 31.5t63 11.5t63 -11.5t47.5 -31.5t30 -47.5t10.5 -58.5zM187 401q33 0 47.5 21.5t14.5 53.5t-14.5 53.5t-47.5 21.5
t-47.5 -21.5t-14.5 -53.5t14.5 -53.5t47.5 -21.5zM696 131q0 -31 -10.5 -58t-30 -46.5t-47.5 -31t-63 -11.5t-63 11.5t-47.5 31t-30 46.5t-10.5 58t10.5 58.5t30 47.5t47.5 31.5t63 11.5t63 -11.5t47.5 -31.5t30 -47.5t10.5 -58.5zM545 57q33 0 47.5 21.5t14.5 53.5
t-14.5 53.5t-47.5 21.5t-47.5 -21.5t-14.5 -53.5t14.5 -53.5t47.5 -21.5zM1048 131q0 -31 -10.5 -58t-30 -46.5t-47.5 -31t-63 -11.5t-63 11.5t-47.5 31t-30 46.5t-10.5 58t10.5 58.5t30 47.5t47.5 31.5t63 11.5t63 -11.5t47.5 -31.5t30 -47.5t10.5 -58.5zM897 57
q33 0 47.5 21.5t14.5 53.5t-14.5 53.5t-47.5 21.5t-47.5 -21.5t-14.5 -53.5t14.5 -53.5t47.5 -21.5z" />
    <glyph glyph-name="guilsinglleft" unicode="&#x2039;" horiz-adv-x="339" 
d="M158 55l-138 221l138 221h147l-138 -221l138 -221h-147z" />
    <glyph glyph-name="guilsinglright" unicode="&#x203a;" horiz-adv-x="339" 
d="M34 55l138 221l-138 221h147l138 -221l-138 -221h-147z" />
    <glyph glyph-name="fraction" unicode="&#x2044;" horiz-adv-x="276" 
d="M-140 0l456 610h100l-455 -610h-101z" />
    <glyph glyph-name="Euro" unicode="&#x20ac;" horiz-adv-x="652" 
d="M602 43q-31 -26 -72 -43.5t-102 -17.5q-115 0 -192 59.5t-103 161.5h-79v71h68q-1 8 -1 16v16v13.5t1 13.5h-68v71h79q14 54 42.5 95.5t67 69.5t85.5 42.5t97 14.5q61 0 105 -19t65 -38l-20 -114q-14 12 -28 22t-30 17t-35 11t-44 4q-48 0 -86.5 -27t-59.5 -78h185
l-12 -71h-189q-1 -7 -1 -13.5v-13.5q0 -8 0.5 -16t1.5 -16h177l-13 -71h-147q22 -51 61 -75.5t84 -24.5q28 0 49 5t37.5 14t30 20.5t26.5 24.5z" />
    <glyph glyph-name="trademark" unicode="&#x2122;" horiz-adv-x="778" 
d="M119 280v253l-99 -1v78h295v-78l-99 1v-253h-97zM648 280l-17 163v47l-65 -210h-73l-67 210l1 -47l-18 -163h-91l40 330h107l65 -201l61 201h110l39 -330h-92z" />
    <glyph glyph-name="Omega" unicode="&#x2126;" horiz-adv-x="700" 
d="M388 0v104q27 25 48 55t35 61t21.5 62.5t7.5 61.5q0 31 -6.5 60.5t-23 52t-45.5 36t-75 13.5t-75 -13.5t-45.5 -36t-23 -52t-6.5 -60.5q0 -30 7.5 -61.5t21.5 -62.5t35 -61t48 -55v-104h-264v112h118q-27 18 -50.5 43.5t-41 56.5t-27 66.5t-9.5 74.5q0 63 20.5 113.5
t60 86t98 54.5t133.5 19t133.5 -19t98 -54.5t60 -86t20.5 -113.5q0 -39 -9.5 -74.5t-27 -66.5t-41 -56.5t-50.5 -43.5h118v-112h-264z" />
    <glyph glyph-name="estimated" unicode="&#x212e;" horiz-adv-x="856" 
d="M745 130q-54 -63 -134 -101t-177 -38q-83 0 -155 28t-125 77t-83.5 114t-30.5 139q0 75 30 140t82.5 114t123.5 77t154 28q82 0 153.5 -28t124 -77t82.5 -114t30 -140v-14h-628q-5 0 -5 -4v-185q0 -11 2 -17.5t6 -11.5q45 -51 106.5 -73.5t133.5 -22.5q156 0 252 109h58z
M673 551q0 15 -2.5 22t-8.5 14q-46 45 -102.5 68t-128.5 23q-141 0 -235 -97q-9 -9 -9 -29v-187q0 -6 5 -6h476q5 0 5 6v186z" />
    <glyph glyph-name="partialdiff" unicode="&#x2202;" horiz-adv-x="591" 
d="M384 319q-17 14 -37.5 19t-40.5 5q-45 0 -78.5 -35.5t-33.5 -106.5q0 -22 6.5 -42.5t19 -36t30.5 -25t42 -9.5q45 0 70 41t25 122q0 13 -0.5 34.5t-2.5 33.5zM171 670q113 0 186.5 -34t116.5 -90t60 -127.5t17 -147.5q0 -71 -18.5 -124t-52.5 -88.5t-82 -53.5t-106 -18
q-65 0 -113 17.5t-80.5 48.5t-48.5 74t-16 95q0 51 17.5 91.5t49 69t74 43.5t93.5 15q52 0 77.5 -6t37.5 -11q-6 24 -16.5 47.5t-33 43t-61 32.5t-101.5 16v107z" />
    <glyph glyph-name="Delta" unicode="&#x2206;" horiz-adv-x="650" 
d="M40 0v89l196 561h177l197 -561v-89h-570zM325 508l-116 -385h232z" />
    <glyph glyph-name="product" unicode="&#x220f;" horiz-adv-x="672" 
d="M446 -215v740h-220v-740h-154v865h528v-865h-154z" />
    <glyph glyph-name="summation" unicode="&#x2211;" horiz-adv-x="547" 
d="M27 -215v100l220 338l-208 323v104h469v-140h-260l161 -245v-78l-169 -260h282v-142h-495z" />
    <glyph glyph-name="minus" unicode="&#x2212;" horiz-adv-x="548" 
d="M505 259h-462v110h462v-110z" />
    <glyph glyph-name="uni2219" unicode="&#x2219;" horiz-adv-x="280" 
d="M141 194q-20 0 -37.5 7.5t-31 20.5t-21 30.5t-7.5 37.5q0 42 28.5 69t68.5 27q20 0 37.5 -8t30 -21.5t20 -30.5t7.5 -36q0 -42 -27.5 -69t-67.5 -27z" />
    <glyph glyph-name="radical" unicode="&#x221a;" horiz-adv-x="503" 
d="M208 -64l-115 306h-77v107h159l88 -256l113 557h111l-152 -714h-127z" />
    <glyph glyph-name="infinity" unicode="&#x221e;" horiz-adv-x="712" 
d="M352 168q-24 -38 -59.5 -61t-86.5 -23q-41 0 -75 12t-58.5 35t-38.5 55t-14 73q0 45 15.5 77t41 53t57.5 31t66 10q51 0 89.5 -22t67.5 -62q25 38 61.5 61t87.5 23q40 0 74.5 -12t59 -35t38.5 -55.5t14 -72.5q0 -45 -15.5 -77t-41 -53t-57.5 -31t-66 -10q-52 0 -91.5 22
t-68.5 62zM316 276q-5 9 -16 20t-25.5 20t-30 15t-29.5 6q-21 0 -35.5 -7.5t-23 -19t-12.5 -25.5t-4 -27q0 -14 4 -28t12 -26t21.5 -19.5t32.5 -7.5t35 8.5t29 22.5t23.5 32t18.5 36zM397 276q8 -18 18.5 -36t23.5 -32t28.5 -22.5t35.5 -8.5q19 0 32.5 7.5t21.5 19.5t12 26
t4 28q0 13 -4 27t-12.5 25.5t-23 19t-35.5 7.5q-14 0 -29.5 -6t-30 -15t-25.5 -20t-16 -20z" />
    <glyph glyph-name="integral" unicode="&#x222b;" horiz-adv-x="427" 
d="M20 -95q14 -5 29 -8.5t35 -3.5q24 0 37 14.5t13 50.5v538q0 29 6.5 59t24 54.5t48 40t79.5 15.5q40 0 65 -4.5t50 -12.5v-117q-14 5 -29 8.5t-35 3.5q-24 0 -37 -14.5t-13 -50.5v-538q0 -29 -6.5 -59t-24 -54.5t-48 -40t-79.5 -15.5q-40 0 -65 4.5t-50 12.5v117z" />
    <glyph glyph-name="approxequal" unicode="&#x2248;" horiz-adv-x="548" 
d="M489 350q-29 -24 -61 -36t-58 -12q-28 0 -53 10t-48 22t-46 22t-47 10q-31 0 -59.5 -15t-57.5 -42v120q19 16 50 32t68 16q28 0 53 -10t48 -22t46 -22t48 -10q26 0 57.5 14t59.5 43v-120zM489 161q-29 -24 -61 -36t-58 -12q-28 0 -53 10t-48 22t-46 22t-47 10
q-31 0 -59.5 -15t-57.5 -42v120q19 16 50 32t68 16q28 0 53 -10t48 -22t46 -22t48 -10q26 0 57.5 14t59.5 43v-120z" />
    <glyph glyph-name="notequal" unicode="&#x2260;" horiz-adv-x="548" 
d="M235 147l-77 -147h-80l77 147h-97v108h154l48 91h-202v108h258l74 140h80l-74 -140h94v-108h-150l-48 -91h198v-108h-255z" />
    <glyph glyph-name="lessequal" unicode="&#x2264;" horiz-adv-x="548" 
d="M22 325v96l466 224v-119l-336 -153l336 -153v-119zM22 0v90h466v-90h-466z" />
    <glyph glyph-name="greaterequal" unicode="&#x2265;" horiz-adv-x="548" 
d="M60 101v119l336 153l-336 153v119l466 -224v-96zM60 0v90h466v-90h-466z" />
    <glyph glyph-name="lozenge" unicode="&#x25ca;" horiz-adv-x="574" 
d="M229 0l-199 324l199 326h116l199 -326l-199 -324h-116zM398 325l-111 180l-111 -180l111 -179z" />
    <glyph glyph-name="uni0E10.alt1" unicode="&#xf700;" horiz-adv-x="619" 
d="M181 0l-74 182q-7 17 -15.5 34.5t-16.5 32.5l-19 35h159l61 -177q30 3 56.5 16t46 36t31 56.5t11.5 78.5q0 72 -45.5 112t-123.5 40q-61 0 -114.5 -14.5t-101.5 -35.5v123q39 17 97.5 30.5t130.5 13.5q35 0 65.5 -5t57.5 -14l45 50h163l-104 -106q42 -36 63 -86t21 -108
q0 -70 -25.5 -122t-66 -88t-91 -56.5t-99.5 -27.5h-112z" />
    <glyph glyph-name="uni0E34.alt1" unicode="&#xf701;" 
d="M-670 626v110h401v-110h-401z" />
    <glyph glyph-name="uni0E35.alt1" unicode="&#xf702;" 
d="M-670 626v110h265l-4 88h140v-198h-401z" />
    <glyph glyph-name="uni0E36.alt1" unicode="&#xf703;" 
d="M-670 626v110h178q0 46 31 77.5t89 31.5q57 0 88 -31.5t31 -77.5q0 -48 -31 -79t-88 -31h-298zM-372 692q17 0 29.5 13t12.5 30q0 18 -12.5 31t-29.5 13q-18 0 -30.5 -13t-12.5 -31q0 -17 12.5 -30t30.5 -13z" />
    <glyph glyph-name="uni0E37.alt1" unicode="&#xf704;" 
d="M-670 626v110h119l-4 88h116v-92h58l-4 92h116v-198h-401z" />
    <glyph glyph-name="uni0E48.alt1" unicode="&#xf705;" 
d="M-447 626l-9 218h152l-8 -218h-135z" />
    <glyph glyph-name="uni0E49.alt1" unicode="&#xf706;" 
d="M-616 626v80q16 4 32.5 8.5t30 10.5t21.5 15t8 22q0 27 -39 27q-13 0 -26.5 -1.5t-25.5 -6.5v79q18 5 41.5 10.5t53.5 5.5q49 0 78.5 -16.5t29.5 -60.5q0 -27 -11.5 -44t-23.5 -28l180 3v-104h-349z" />
    <glyph glyph-name="uni0E4A.alt1" unicode="&#xf707;" 
d="M-385 626v50q0 17 -3.5 30t-16.5 13q-14 0 -21 -13.5t-9 -27.5h-60q-2 14 -9.5 27.5t-21.5 13.5q-13 0 -16.5 -13t-3.5 -30v-50h-121v80q0 22 7.5 42.5t21 36.5t33 25.5t44.5 9.5q35 0 59.5 -15t35.5 -38q11 23 36 38t61 15q54 0 79 -29t22 -77l66 6v-94h-183z" />
    <glyph glyph-name="uni0E4B.alt1" unicode="&#xf708;" 
d="M-385 716l2 -90h-125l3 90l-98 -3v98l98 -2l-3 89h125l-2 -89l100 2v-98z" />
    <glyph glyph-name="uni0E4C.alt1" unicode="&#xf709;" 
d="M-371 704q-40 0 -40 -33q0 -8 2.5 -20t7.5 -25h-136q-9 19 -12.5 38.5t-3.5 32.5q0 50 31.5 83t103.5 33h145v-109h-98z" />
    <glyph glyph-name="uni0E48.alt2" unicode="&#xf70a;" 
d="M-207 626l-9 218h152l-8 -218h-135z" />
    <glyph glyph-name="uni0E49.alt2" unicode="&#xf70b;" 
d="M-356 626v80q16 4 32.5 8.5t30 10.5t21.5 15t8 22q0 27 -39 27q-13 0 -26.5 -1.5t-25.5 -6.5v79q18 5 41.5 10.5t53.5 5.5q49 0 78.5 -16.5t29.5 -60.5q0 -27 -11.5 -44t-23.5 -28l170 3v-104h-339z" />
    <glyph glyph-name="uni0E4A.alt2" unicode="&#xf70c;" 
d="M-215 626v50q0 17 -3.5 30t-16.5 13q-14 0 -21 -13.5t-9 -27.5h-60q-2 14 -9.5 27.5t-21.5 13.5q-13 0 -16.5 -13t-3.5 -30v-50h-121v80q0 22 7.5 42.5t21 36.5t33 25.5t44.5 9.5q35 0 59.5 -15t35.5 -38q11 23 36 38t61 15q54 0 79 -29t22 -77l76 6v-94h-193z" />
    <glyph glyph-name="uni0E4B.alt2" unicode="&#xf70d;" 
d="M-137 716l2 -90h-125l3 90l-98 -3v98l98 -2l-3 89h125l-2 -89l100 2v-98z" />
    <glyph glyph-name="uni0E4C.alt2" unicode="&#xf70e;" 
d="M-155 704q-40 0 -40 -33q0 -8 2.5 -20t7.5 -25h-136q-9 19 -12.5 38.5t-3.5 32.5q0 50 31.5 83t103.5 33h179v-109h-132z" />
    <glyph glyph-name="uni0E0D.alt1" unicode="&#xf70f;" horiz-adv-x="992" 
d="M779 547h154v-349q0 -45 -16 -84.5t-48.5 -68t-80 -45t-110.5 -16.5q-66 0 -114 15.5t-79.5 43.5t-46.5 67.5t-15 87.5v118q0 66 -23 98t-83 32q-25 0 -51.5 -3t-49.5 -9v-277q0 -37 12 -49.5t42 -12.5q20 0 34 2.5t32 7.5v-105q-50 -14 -104 -14q-35 0 -66 8.5t-54 27
t-36.5 49.5t-13.5 76v371q21 8 51 16t64.5 14.5t71.5 10.5t72 4q59 0 106.5 -13t80.5 -41.5t51 -74t18 -110.5v-120q0 -48 25 -75.5t76 -27.5t76 27.5t25 75.5v343z" />
    <glyph glyph-name="uni0E31.alt1" unicode="&#xf710;" 
d="M-430 626q-75 0 -111.5 31.5t-36.5 89.5q0 15 4 33.5t14 40.5h133q-5 -11 -7.5 -24t-2.5 -22q0 -18 8.5 -29.5t30.5 -11.5h281v-108h-313z" />
    <glyph glyph-name="uni0E4D.alt1" unicode="&#xf711;" 
d="M-263 726q0 -51 -34 -86t-97 -35t-97 35t-34 86t34 85t97 34t97 -34t34 -85zM-394 682q18 0 30 12.5t12 30.5t-12 30.5t-30 12.5t-30 -12.5t-12 -30.5t12 -30.5t30 -12.5z" />
    <glyph glyph-name="uni0E47.alt1" unicode="&#xf712;" 
d="M-340 626q-21 0 -45 14.5t-38 36.5q-7 -11 -15.5 -20.5t-20.5 -17.5t-28.5 -12.5t-38.5 -4.5q-58 0 -95.5 39t-37.5 103q0 66 44 102t119 36h224v-96h-221q-29 0 -40.5 -11.5t-11.5 -30.5q0 -23 14 -31.5t26 -8.5q27 0 38.5 13.5t14.5 30.5h59q4 -18 18 -30t41 -12h62
v-100h-68z" />
    <glyph glyph-name="uni0E48.alt3" unicode="&#xf713;" 
d="M-401 869l-4 189h136l-4 -189h-128z" />
    <glyph glyph-name="uni0E49.alt3" unicode="&#xf714;" 
d="M-501 869v68q14 4 29 9t27.5 11.5t20.5 16t8 21.5q0 26 -36 26q-11 0 -24.5 -1.5t-24.5 -5.5v72q17 5 39 10t49 5q42 0 67.5 -19t25.5 -54q0 -28 -10.5 -45t-21.5 -27l155 8v-95h-304z" />
    <glyph glyph-name="uni0E4A.alt3" unicode="&#xf715;" 
d="M-325 869v53q0 16 -3.5 25.5t-14.5 9.5q-13 0 -18.5 -10.5t-7.5 -22.5h-50q-2 12 -7.5 22.5t-18.5 10.5q-11 0 -14.5 -9.5t-3.5 -25.5v-53h-110v83q0 40 25.5 70t70.5 30q32 0 53.5 -14.5t29.5 -37.5q8 23 29.5 37.5t54.5 14.5q48 0 71 -28t20 -71l66 5v-89h-172z" />
    <glyph glyph-name="uni0E4B.alt3" unicode="&#xf716;" 
d="M-284 945l2 -76h-113l2 76l-80 -2v87l80 -2l-2 76h113l-2 -76l82 2v-87z" />
    <glyph glyph-name="uni0E4C.alt3" unicode="&#xf717;" 
d="M-356 859q-37 0 -37 -30q0 -17 9 -41h-127q-8 17 -11 35t-3 30q0 45 29 77t93 32h185v-103h-138z" />
    <glyph glyph-name="uni0E38.alt1" unicode="&#xf718;" 
d="M-199 -466v87q0 30 -38 30q-6 0 -16.5 -1t-18.5 -3v92q22 4 52 7t51 3q57 0 83.5 -23.5t26.5 -77.5v-114h-140z" />
    <glyph glyph-name="uni0E39.alt1" unicode="&#xf719;" 
d="M-59 -355q0 -36 -13 -60t-35.5 -38.5t-53.5 -20.5t-66 -6t-65.5 6t-53.5 20.5t-36 38.5t-13 60v4h-52v89h180v-84q0 -26 11 -35t29 -9t29 9t11 35v84h128v-93z" />
    <glyph glyph-name="uni0E3A.alt1" unicode="&#xf71a;" 
d="M-43 -340q0 -18 -7.5 -34t-20 -28.5t-29.5 -19.5t-36 -7q-20 0 -37 7t-30 19.5t-20.5 28.5t-7.5 34t7.5 34.5t20.5 28.5t30 19t37 7q19 0 36 -7t29.5 -19t20 -28.5t7.5 -34.5z" />
    <glyph glyph-name="uni0E0E.alt1" unicode="&#xf71b;" horiz-adv-x="683" 
d="M478 -213l-142 47q-27 10 -50 10q-45 0 -43 -56h-120q-2 81 38 120.5t106 39.5q41 0 89 -15l114 -35v423q0 30 -4 53.5t-15 39.5t-31 24t-53 8q-29 0 -52.5 -3.5t-46.5 -8.5v-283q0 -46 -10 -77t-30 -50t-49 -27.5t-68 -8.5q-29 0 -51 3.5t-44 10.5v105q27 -10 55 -10
q23 0 33 12t10 41v368q21 7 50.5 15t63 14.5t70.5 11t73 4.5q124 0 188.5 -54.5t64.5 -183.5v-538h-146z" />
    <glyph glyph-name="uni0E0F.alt1" unicode="&#xf71c;" horiz-adv-x="683" 
d="M460 -213q-48 0 -85 19t-51 54q-14 -35 -45.5 -56.5t-79.5 -21.5q-23 0 -48.5 2.5t-51.5 16.5v114q21 -12 42 -17t46 -5q32 0 52.5 12t34.5 52h93q14 -36 38 -47t55 -11h10v422q0 30 -4 53.5t-15 39.5t-31 24t-53 8q-29 0 -52.5 -3.5t-46.5 -8.5v-283q0 -46 -10 -77
t-30 -50t-49 -27.5t-68 -8.5q-29 0 -51 3.5t-44 10.5v105q27 -10 55 -10q23 0 33 12t10 41v368q21 7 50.5 15t63 14.5t70.5 11t73 4.5q124 0 188.5 -54.5t64.5 -183.5v-538h-164z" />
    <glyph glyph-name="uni0E2C.alt1" unicode="&#xf71d;" horiz-adv-x="714" 
d="M491 0l-90 137q-18 31 -27.5 49t-17.5 40h-2q-8 -22 -17.5 -40t-27.5 -49l-90 -137h-157v547h148v-258q0 -33 -2.5 -74t-9.5 -79h2q6 18 12 31.5t13 26.5t15 26t18 30l55 90h87l56 -89q19 -33 32 -57t26 -58h2q-7 38 -9.5 79t-2.5 74v59q0 35 -12 49.5t-43 14.5
q-19 0 -37.5 -2.5t-35.5 -6.5v93q17 5 42.5 8t54.5 5l62 85h160l-99 -113q30 -18 43 -43t13 -74v-364h-161z" />
    <glyph glyph-name="uniF8FF" unicode="&#xf8ff;" horiz-adv-x="1170" 
d="M1070 555v-555l-485 -276l-485 276v555l485 277zM614 779l310 -479l93 248zM153 548l93 -248l310 479zM129 18l98 251v2l-98 261v-514zM556 -230l-310 469l-93 -239zM261 269l324 -492l324 492l-324 501zM1018 0l-94 239l-310 -469zM1041 532l-98 -263l98 -251v514z
M415 300q2 -2 5 -4t4 -4q0 -5 1 -8q-20 -23 -36.5 -29t-25.5 -6q18 12 32.5 28.5t19.5 22.5zM450 199q8 0 10 -14t-1 -27q-5 -14 -14 -19.5t-21 -5.5q-15 1 -22.5 10.5t-10.5 21.5t-4 22.5t-2 15.5q-2 8 -2 19t-1 23h1q8 3 18 9.5t21 17.5q4 -19 2.5 -38t-4.5 -33
q-1 -4 -1.5 -11t0.5 -13.5t2.5 -12.5t5.5 -7q7 -2 9 3t3 8q1 8 -1.5 10.5t-4.5 6.5q-2 5 5.5 9.5t11.5 4.5zM558 212q1 1 1.5 4t2.5 6q1 4 3 8q-1 -2 -0.5 -8.5t0.5 -14.5q0 -9 1 -19q-6 1 -11 6q-3 2 -4 3q1 2 3 5q1 2 2 5t2 5zM765 173q2 5 5 8t5 9v-6v-6t-2 -8
q-3 -8 -5 -22t-2 -22q2 -8 2.5 -14t-4.5 -8q1 1 1 4q0 2 -2 12q-5 11 -3 30q1 4 2 11t3 12zM553 125q4 -4 9 -2q3 0 6 2q0 -8 1.5 -13.5t-0.5 -10.5q-1 3 -4 7t-9 2q-3 0 -7 -8q-2 8 -8 8q-5 0 -6.5 -3t-3.5 -6l-4 6l-6 3q-3 0 -5.5 -3.5t-4.5 -5.5q-2 7 2 22q1 3 0.5 8.5
t-0.5 10.5q-1 6 -1 13q14 -6 25 -16t16 -14zM576 168q2 2 10 2q1 -4 -2 -13q-8 6 -8 11zM568 155q2 2 6 1t7 -3l-2 -4q-1 -2 -2 -3t-2 -3q-7 5 -7 12zM562 141q2 1 10 -3q-5 -5 -9 -6q-2 2 -3.5 5t0.5 3zM558 106q5 2 7 -6q-2 -4 -13 -6q2 12 6 12zM541 105q2 0 3 -3.5
t3 -7.5h-6h-8q0 4 2.5 7.5t5.5 3.5zM524 104q4 -4 4 -9q-10 2 -13 4q6 8 7 7zM748 106q3 1 7 -6q-2 -2 -5 -3.5t-9 -2.5q3 12 7 12zM730 105q2 0 4 -3.5t3 -7.5h-6h-8q1 4 3 7.5t4 3.5zM713 105q3 -3 5 -10q-5 2 -8.5 2.5t-5.5 1.5q3 8 6 7zM798 241q1 -3 3 -7q1 -3 2 -7.5
t1 -9.5t-1 -9.5t-2 -8.5l-2 -8q-3 4 -6 10q-2 5 -3.5 14t-0.5 23q1 15 0 28q-1 11 -2.5 23t-4.5 20q-2 -13 -5 -24l-4 -20t-4 -15q-3 -10 -1.5 -24t3.5 -21q2 -8 -3 -13t-9 -16q-3 -8 -4.5 -17t-1.5 -14q0 -7 1 -15.5t5 -17.5q2 -8 0 -10q-2 3 -4.5 6t-7.5 2q-4 0 -8 -8
q-2 8 -9 8q-5 0 -10 -7l-2 6l-7 2q-4 0 -6.5 -3t-4.5 -6q-2 4 -1 9q4 17 7.5 38t-2.5 34q-3 6 -10 14.5t-14.5 19t-13 22t-6.5 25.5q-1 -1 -2 -4q-2 -6 2 -17q-12 -2 -25 -1q-12 1 -27.5 3t-33.5 8q0 2 1 5q1 2 1.5 5.5t2.5 8.5q-2 -4 -6 -8q-3 -4 -6.5 -10.5t-5.5 -15.5
q-2 -6 -8 -19.5t-8 -18.5t7 -11.5t14 -8.5l8 -2t7 -3q-6 0 -9 -5v-2q0 -3 4 -9q-8 2 -10 -2l-1 -4q0 -5 3 -8h-7l-5 -2q-2 -7 2 -12q-2 2 -5 3.5t-7 4.5q-5 4 -11.5 9t-13 9.5t-12 7.5t-7.5 3q-4 2 -10 8.5t-5 23.5q1 8 3 22t3.5 28.5t3.5 27t3 17.5q-2 0 -3 -2
q-1 -1 -5 -11l-16 25q5 3 8.5 8t5.5 9l6 -9l4 -6l4 3q0 1 4.5 6.5t6.5 11.5q5 12 7 27l1.5 7.5t1.5 4.5l3 7l5 12.5t4.5 16t0 17t-8.5 16.5q-8 7 -15.5 9.5t-14.5 2.5q-8 0 -15 -2l5 -0.5t11 -2t12.5 -4t10.5 -7.5q8 -9 8 -22q0 -10 -3.5 -18t-5.5 -16l-3 -7q-1 -2 -1.5 -5
t-2.5 -8q-2 -12 -5 -26q-2 -2 -4.5 -6t-4.5 -7q-3 3 -7 11q-2 4 -4 7l-3 -5q-2 -3 -6.5 -10.5t-9.5 -10.5q-7 -3 -12 -5t-9 -6q-2 -2 -4.5 -5t-4.5 -11q-1 -3 -2.5 -4.5l-3.5 -3.5t-4 -2v2q0 1 -0.5 2.5t-0.5 3.5q-1 2 -0.5 5t0.5 5v4l-16 13l-3 -2q-4 -6 -9 -12
q-5 -5 -11 -12t-13 -14q-1 2 -1 3.5t-1 3.5q-1 -2 -5 -4q-3 -2 -8 -3.5t-13 -1.5q15 11 21 19q3 4 3 6q-1 9 -1 17.5v15.5q0 8 1 16q-1 7 -1.5 22t1.5 23t4.5 15.5t7.5 23.5q6 14 15 18q4 2 10 2q5 6 10 11t10.5 8.5t12.5 4.5q21 2 36.5 -1t28.5 -1q6 1 16 3t21.5 4t22.5 3
t20 0q8 -1 25 -4.5t36.5 -9t37.5 -12.5t29 -15q10 -9 22.5 -19.5t23.5 -24.5t19.5 -31.5t10.5 -40.5t3 -38t2 -24v-17zM450 383q0 2 1.5 3.5l3.5 3.5t4 5q-2 1 -5 1q-6 0 -10 -5q-4 -3 -4 -11q0 -4 1 -7l3 3q2 2 3 3.5t3 3.5zM521 423q-4 6 -8 8t-9 3t-10 0q18 -5 22 -16
q2 -10 2 -17q0 -5 -1 -10q3 5 5 10t2 10.5t-3 11.5z" />
    <glyph glyph-name="NULL" 
 />
    <glyph glyph-name="uni0E33.alt1" horiz-adv-x="513" 
d="M-263 726q0 -51 -34 -86t-97 -35t-97 35t-34 86t34 85t97 34t97 -34t34 -85zM300 0v333q0 113 -113 113q-54 0 -96.5 -16t-76.5 -37v121q32 18 83.5 33.5t123.5 15.5q46 0 88.5 -12t74.5 -38t51 -68t19 -103v-342h-154zM-394 682q18 0 30 12.5t12 30.5t-12 30.5t-30 12.5
t-30 -12.5t-12 -30.5t12 -30.5t30 -12.5z" />
    <glyph glyph-name="uni0E4E.alt1" 
 />
    <glyph glyph-name="uni0E01.alt" horiz-adv-x="640" 
d="M427 0v343q0 57 -27 80t-82 23q-20 0 -30.5 -1t-17.5 -3q-31 -35 -41.5 -74.5t-10.5 -93.5v-274h-154v258q0 61 22.5 107t57.5 72q-29 -2 -53 -5.5t-52 -9.5v100q26 10 59 17.5t68 13t70 8t65 2.5q148 0 214 -55.5t66 -155.5v-352h-154z" />
    <glyph glyph-name="uni0E2B.alt" horiz-adv-x="624" 
d="M412 0v228q0 42 -17 57.5t-48 15.5q-16 0 -35 -3.5t-38 -9.5t-37 -13.5t-31 -16.5v-258h-150v547h150v-186q29 18 69.5 31t88.5 15l70 140h166l-94 -172q26 -20 40.5 -52.5t14.5 -80.5v-242h-149z" />
    <glyph glyph-name="uni0E2D.alt" horiz-adv-x="633" 
d="M593 274q0 -77 -24 -132.5t-64.5 -91t-94 -52t-113.5 -16.5q-37 0 -72.5 4.5t-67 12.5t-57.5 18t-44 22v256h148v-188q14 -5 35.5 -8t53.5 -3q65 0 105.5 44.5t40.5 133.5q0 83 -44 129t-132 46q-61 0 -114.5 -16.5t-95.5 -39.5v127q36 15 96.5 29t132.5 14q74 0 132 -20
t97.5 -57.5t60.5 -91t21 -120.5z" />
    <glyph glyph-name="zero.tab" horiz-adv-x="652" 
d="M326 -18q-62 0 -114 20.5t-90 61t-59 100.5t-21 140q0 79 21 139.5t59 101t90 61t114 20.5t114 -20.5t90 -61t59 -101t21 -139.5q0 -80 -21 -140t-59 -100.5t-90 -61t-114 -20.5zM326 100q36 0 60.5 14.5t39.5 41.5t21.5 64.5t6.5 83.5t-6.5 83.5t-21.5 64.5t-39.5 41.5
t-60.5 14.5t-60.5 -14.5t-39.5 -41.5t-21.5 -64.5t-6.5 -83.5t6.5 -83.5t21.5 -64.5t39.5 -41.5t60.5 -14.5z" />
    <glyph glyph-name="one.tab" horiz-adv-x="652" 
d="M296 0v459q-30 -33 -77 -44.5t-93 -10.5v129q36 -2 68 5.5t56.5 19.5t41.5 26t24 26h130v-610h-150z" />
    <glyph glyph-name="two.tab" horiz-adv-x="652" 
d="M100 0v108q85 57 140 100.5t86.5 78t43.5 64.5t12 60q0 95 -105 95q-48 0 -90.5 -12t-82.5 -35v132q29 13 74 24t112 11q70 0 117.5 -17.5t76.5 -46.5t41.5 -66.5t12.5 -77.5q0 -50 -22.5 -93.5t-57 -80.5t-77 -68t-81.5 -56h250v-120h-450z" />
    <glyph glyph-name="three.tab" horiz-adv-x="652" 
d="M433 318q57 -11 90 -48.5t33 -97.5q0 -47 -19 -82t-53.5 -58.5t-81.5 -35.5t-102 -12q-67 0 -113.5 10.5t-72.5 22.5v122q13 -8 34 -14.5t44 -11.5t45.5 -8t40.5 -3q53 0 87.5 18t34.5 65q0 27 -14 43t-37 24t-54.5 9t-65.5 -2v110q32 0 60.5 3t50.5 11.5t34.5 22.5
t12.5 36q0 66 -113 66q-38 0 -79.5 -9.5t-70.5 -26.5v120q28 13 77 22.5t109 9.5q105 0 166.5 -41t61.5 -125q0 -54 -27 -88.5t-78 -49.5v-2z" />
    <glyph glyph-name="four.tab" horiz-adv-x="652" 
d="M351 0v113h-309v102l305 395h154v-382h84v-115h-84v-113h-150zM351 433l-156 -205h156v205z" />
    <glyph glyph-name="five.tab" horiz-adv-x="652" 
d="M99 136q29 -14 72 -23.5t88 -9.5q69 0 107 22.5t38 74.5q0 86 -149 86q-43 0 -77.5 -3t-63.5 -7l12 334h404v-120h-268l-4 -91q11 1 26.5 1h25.5q66 0 113.5 -15t78 -41.5t45 -63t14.5 -78.5q0 -54 -21.5 -95t-59.5 -68t-90 -41t-112 -14q-27 0 -53.5 2.5t-50.5 7
t-43.5 10t-31.5 11.5v121z" />
    <glyph glyph-name="six.tab" horiz-adv-x="652" 
d="M523 478q-22 12 -55 20t-70 8q-44 0 -73.5 -11.5t-48 -32.5t-28 -50t-12.5 -64q56 50 145 50q51 0 88.5 -15.5t63 -42t38 -62t12.5 -75.5q0 -49 -16 -89t-46 -68.5t-73 -44.5t-98 -16q-61 0 -110 19t-83.5 58t-53.5 97.5t-19 138.5t22 141t61 102t93 62t119 21
q49 0 84 -7.5t60 -15.5v-123zM234 227q5 -57 35 -90.5t73 -33.5q15 0 32 4t31.5 14.5t24 30t9.5 49.5q0 17 -5 33.5t-16 30t-28.5 21.5t-41.5 8q-35 0 -66 -20t-48 -47z" />
    <glyph glyph-name="seven.tab" horiz-adv-x="652" 
d="M154 0l216 490h-286v120h453v-109l-219 -501h-164z" />
    <glyph glyph-name="eight.tab" horiz-adv-x="652" 
d="M458 315q60 -17 85.5 -56t25.5 -90q0 -42 -17 -76.5t-49.5 -59t-79.5 -38t-107 -13.5q-56 0 -99.5 13.5t-73 37.5t-45 56.5t-15.5 70.5q0 51 28 91t85 58v2q-56 20 -78 58.5t-22 85.5q0 36 15.5 67.5t45 54.5t72 36t95.5 13t95.5 -12.5t72 -35t45 -54t15.5 -69.5
q0 -54 -29 -88.5t-65 -49.5v-2zM295 254q-26 -10 -47 -32t-21 -51q0 -21 8.5 -36t23 -25t32 -14.5t35.5 -4.5t35.5 4.5t31.5 14.5t23 25.5t9 38.5q0 19 -11 32t-29 22.5t-41.5 15.5t-48.5 10zM359 368q21 14 37 38t16 49q0 17 -8.5 29t-21.5 20t-29 11.5t-31 3.5
q-40 -1 -62.5 -19.5t-22.5 -44.5q0 -37 32 -58t90 -29z" />
    <glyph glyph-name="nine.tab" horiz-adv-x="652" 
d="M129 131q22 -12 55 -20t70 -8q43 0 73 11.5t48.5 32.5t28 50t12.5 64q-27 -24 -63.5 -37t-81.5 -13q-51 0 -88.5 15.5t-63 42t-38 62t-12.5 75.5q0 49 16 89t46 68.5t73 44.5t98 16q61 0 110 -19t83.5 -58t53.5 -98t19 -138q0 -80 -22 -141t-61 -102t-93.5 -62
t-118.5 -21q-49 0 -84 7.5t-60 15.5v123zM418 382q-5 57 -35 90.5t-73 33.5q-15 0 -32 -4t-31.5 -14.5t-24 -30t-9.5 -49.5q0 -17 5 -33.5t16 -30t28.5 -21.5t41.5 -8q35 0 66 20t48 47z" />
    </font>
</defs>
</svg>
