<?xml version="1.0" standalone="no"?>
<!DOCTYPE svg PUBLIC "-//W3C//DTD SVG 1.1//EN" "http://www.w3.org/Graphics/SVG/1.1/DTD/svg11.dtd" >
<svg xmlns="http://www.w3.org/2000/svg" xmlns:xlink="http://www.w3.org/1999/xlink" version="1.1">
<metadata>
Created by FontForge 20201107 at Mon Nov 25 05:53:04 2013
 By 
Copyright (c) 2013 by Chorong Kim &#38; Cadson Demak Team for SCG Group. All rights reserved.
</metadata>
<defs>
<font id="SCG-Italic" horiz-adv-x="0" >
  <font-face 
    font-family="SCG"
    font-weight="400"
    font-style="italic"
    font-stretch="normal"
    units-per-em="1000"
    panose-1="2 0 5 3 0 0 0 2 0 4"
    ascent="800"
    descent="-200"
    x-height="450"
    cap-height="610"
    bbox="-559 -471 1081 1102"
    underline-thickness="20"
    underline-position="-133"
    slope="-6"
    unicode-range="U+0020-FB02"
  />
<missing-glyph horiz-adv-x="555" 
d="M7 0v700h555v-700h-555zM473 650h-377l188 -255zM507 605l-189 -255l189 -255v510zM284 305l-188 -255h377zM251 350l-188 255v-510z" />
    <glyph glyph-name="uni0E5A" unicode="&#xe2f;&#xe2f;" horiz-adv-x="646" 
d="M462 -80l66 627h71l-66 -627h-71zM295 -80l56 535q-23 -48 -65 -79t-103 -31q-58 0 -92 28.5t-34 85.5q0 30 7 52t13 36h67q-6 -11 -12 -28.5t-6 -40.5q0 -27 14 -49t50 -22q33 0 59 12t47 32t37 45t28 51h72l-66 -627h-72z" />
    <glyph glyph-name="uni0E4F.liga" unicode="&#xe4f;&#x22;" horiz-adv-x="551" 
d="M198 532l13 205h68l-31 -205h-50zM348 532l13 205h68l-31 -205h-50zM251 18q-42 0 -79 15.5t-65 43t-44.5 65.5t-16.5 84q0 54 19.5 100t52 79.5t75.5 52t91 18.5q42 0 79.5 -15t65.5 -42t44.5 -65t16.5 -84q0 -54 -19.5 -100.5t-52 -80t-76 -52.5t-91.5 -19zM256 60
q39 0 74 16.5t61 44t41 64.5t15 79q0 35 -13.5 66t-36 54t-53 36.5t-64.5 13.5q-39 0 -73.5 -16.5t-61 -44t-41.5 -64.5t-15 -78q0 -36 13.5 -67t36.5 -54t53 -36.5t64 -13.5zM257 154q20 0 38 8t31.5 22t21.5 32.5t8 39.5q0 35 -22.5 59.5t-56.5 24.5q-19 0 -36.5 -8
t-31 -22t-21.5 -32.5t-8 -39.5q0 -35 21.5 -59.5t55.5 -24.5zM260 116q-24 0 -45 9.5t-37 25.5t-25.5 38t-9.5 47q0 28 10.5 54t29 45.5t42.5 31t51 11.5q24 0 45.5 -9.5t37 -25.5t25 -38t9.5 -46q0 -29 -10.5 -55t-28.5 -45.5t-42.5 -31t-51.5 -11.5z" />
    <glyph glyph-name="uni0E24.liga" unicode="&#xe24;&#xe32;" horiz-adv-x="960" 
d="M761 -223l58 547q10 94 -23.5 132.5t-119.5 38.5q-42 0 -83.5 -7.5t-73.5 -18.5q28 -55 19 -145l-57 -547h-72l58 547q10 94 -23.5 132.5t-119.5 38.5q-48 0 -93 -9t-77 -21v-65l-28 -259q-6 -54 9 -72t46 -18q32 0 52.5 8t37.5 19l-8 -65q-32 -24 -104 -24
q-24 0 -45 7.5t-36 24.5t-22 44.5t-3 67.5l29 271v103q48 20 111 36t132 16q96 0 148 -37q45 15 97 26t107 11q114 0 170 -55.5t43 -179.5l-57 -547h-72z" />
    <glyph glyph-name="uni0E26.liga" unicode="&#xe26;&#xe32;" horiz-adv-x="944" 
d="M745 -223l58 547q10 94 -23.5 132.5t-119.5 38.5q-67 0 -127 -17q30 -55 19 -154l-57 -547h-72l58 547q5 47 1 79.5t-19 53t-41 29.5t-66 9q-45 0 -86 -9t-73 -21v-65l-30 -278q-5 -41 -15 -66.5t-26 -40.5t-37 -20.5t-47 -5.5q-20 0 -35.5 3.5t-24.5 8.5l7 63
q8 -5 20 -9t26 -4q28 0 41.5 16.5t18.5 56.5l30 280v103q48 20 109.5 36t122.5 16q79 0 126 -29q40 12 85 20.5t93 8.5q114 0 170 -55.5t43 -179.5l-57 -547h-72z" />
    <glyph glyph-name="fi" unicode="fi" horiz-adv-x="548" 
d="M47 -215l63 608h-80l6 57h80l2 21q9 95 76 142.5t175 47.5q42 0 79 -7.5t64 -18.5l-7 -61q-29 11 -61.5 18.5t-75.5 7.5q-81 0 -127 -30t-53 -100l-2 -20h137l-6 -57h-135l-63 -608h-72zM373 0l47 450h72l-47 -450h-72z" />
    <glyph glyph-name="fl" unicode="fl" horiz-adv-x="548" 
d="M375 0l62 594q-14 2 -35.5 4.5t-45.5 2.5q-76 0 -118.5 -31t-49.5 -100l-2 -20h137l-6 -57h-135l-64 -608h-72l64 608h-80l6 57h80l2 21q9 94 71.5 142t168.5 48q46 0 84.5 -5t69.5 -13l-67 -643h-70z" />
    <glyph glyph-name=".notdef" horiz-adv-x="555" 
d="M7 0v700h555v-700h-555zM473 650h-377l188 -255zM507 605l-189 -255l189 -255v510zM284 305l-188 -255h377zM251 350l-188 255v-510z" />
    <glyph glyph-name=".null" 
 />
    <glyph glyph-name="nonmarkingreturn" horiz-adv-x="252" 
 />
    <glyph glyph-name="space" unicode=" " horiz-adv-x="252" 
 />
    <glyph glyph-name="exclam" unicode="!" horiz-adv-x="232" 
d="M78 215l29 395h80l-53 -395h-56zM84 -8q-22 0 -36.5 15t-14.5 37q0 26 17 43.5t42 17.5q22 0 37 -15t15 -38q0 -26 -18 -43t-42 -17z" />
    <glyph glyph-name="quotedbl" unicode="&#x22;" horiz-adv-x="327" 
d="M77 410l18 240h69l-34 -240h-53zM217 410l18 240h69l-35 -240h-52z" />
    <glyph glyph-name="numbersign" unicode="#" horiz-adv-x="580" 
d="M268 0l54 179h-150l-54 -179h-58l55 179h-94l6 58h106l53 174h-92l6 59h103l55 178h58l-55 -178h150l55 178h58l-55 -178h94l-6 -59h-105l-53 -174h93l-6 -58h-106l-54 -179h-58zM394 411h-150l-53 -174h150z" />
    <glyph glyph-name="dollar" unicode="$" horiz-adv-x="580" 
d="M225 -100l10 90q-63 3 -114.5 23.5t-78.5 42.5l34 57q30 -25 74 -42.5t110 -17.5q25 0 53.5 4.5t52 16t39 31.5t15.5 52q0 25 -14 44t-36.5 34t-50.5 27.5t-55 26.5q-26 13 -55.5 28t-54 35t-40.5 47t-16 63q0 78 55 116.5t148 42.5l10 89h52l-10 -90q57 -4 94 -20
t62 -36l-33 -55q-31 23 -67.5 36t-87.5 13q-70 0 -109.5 -21.5t-39.5 -72.5q0 -22 12 -39t31.5 -31t43.5 -26t49 -24q28 -14 60.5 -29.5t60.5 -36.5t46.5 -50t18.5 -69q0 -41 -16.5 -71t-44.5 -50t-65.5 -31.5t-80.5 -15.5l-10 -91h-52z" />
    <glyph glyph-name="percent" unicode="%" horiz-adv-x="657" 
d="M54 0l490 610h57l-489 -610h-58zM181 329q-58 0 -89.5 37t-31.5 92q0 35 9.5 65t28 51.5t45 34t61.5 12.5q58 0 89.5 -36.5t31.5 -93.5q0 -35 -9.5 -65t-28 -51.5t-45.5 -33.5t-61 -12zM182 372q45 0 69.5 32.5t24.5 86.5q0 42 -18.5 64.5t-53.5 22.5q-45 0 -70 -32
t-25 -86q0 -42 19 -65t54 -23zM451 -11q-58 0 -89.5 37t-31.5 92q0 35 9.5 65t28 51.5t45 34t61.5 12.5q58 0 89.5 -36.5t31.5 -93.5q0 -35 -9.5 -65t-28 -51.5t-45.5 -33.5t-61 -12zM452 32q45 0 69.5 32.5t24.5 86.5q0 42 -18.5 64.5t-53.5 22.5q-45 0 -70 -32t-25 -86
q0 -42 19 -65t54 -23z" />
    <glyph glyph-name="ampersand" unicode="&#x26;" horiz-adv-x="611" 
d="M480 0l-59 67q-42 -38 -88 -58.5t-111 -20.5q-41 0 -77 10.5t-62.5 30.5t-42 50.5t-15.5 70.5q0 35 11 63t31 51t48 42t63 37q-22 24 -43 56.5t-21 74.5q0 63 44.5 105.5t128.5 42.5q82 0 123.5 -43.5t34.5 -118.5h-65q5 49 -15.5 77.5t-74.5 28.5q-51 0 -79.5 -23
t-28.5 -63q0 -28 15.5 -54.5t39.5 -54.5l186 -214q24 35 41 79.5t23 98.5h65q-7 -66 -30.5 -123t-58.5 -102l98 -110h-81zM217 301q-54 -25 -87 -61t-33 -90q0 -30 12.5 -49.5t31 -31t40.5 -16t42 -4.5q96 0 159 60z" />
    <glyph glyph-name="quotesingle" unicode="'" horiz-adv-x="195" 
d="M81 410l18 240h69l-35 -240h-52z" />
    <glyph glyph-name="parenleft" unicode="(" horiz-adv-x="266" 
d="M200 -133q-33 24 -61 58.5t-48.5 77.5t-32.5 93.5t-12 106.5q0 82 19.5 152.5t52.5 128t76 101t90 72.5l-5 -43q-36 -30 -66.5 -73t-52 -95.5t-34 -114.5t-12.5 -129q0 -96 24.5 -172t66.5 -119z" />
    <glyph glyph-name="parenright" unicode=")" horiz-adv-x="266" 
d="M-24 -89q36 30 66.5 72.5t52 95.5t34 114t12.5 129q0 96 -24 172.5t-66 119.5l4 43q33 -24 61 -58.5t48.5 -77.5t32.5 -93.5t12 -105.5q0 -83 -19.5 -153.5t-52.5 -128t-76 -101t-89 -72.5z" />
    <glyph glyph-name="asterisk" unicode="*" horiz-adv-x="414" 
d="M240 441l-7 -137h-55l24 137l-119 -83l-23 43l131 72l-116 73l32 41l101 -81l7 136h55l-24 -136l119 81l22 -41l-129 -73l114 -72l-31 -43z" />
    <glyph glyph-name="plus" unicode="+" horiz-adv-x="496" 
d="M276 279l-21 -196h-64l21 196h-178l7 61h178l20 196h64l-20 -196h178l-7 -61h-178z" />
    <glyph glyph-name="comma" unicode="," horiz-adv-x="217" 
d="M8 -105q18 17 37 44.5t22 53.5q-17 1 -30.5 14.5t-13.5 36.5q0 26 17 43.5t43 17.5q31 0 42.5 -17.5t11.5 -38.5q0 -24 -9 -48.5t-23 -47t-31 -41t-33 -30.5z" />
    <glyph glyph-name="hyphen" unicode="-" horiz-adv-x="310" 
d="M28 272l7 65h243l-7 -65h-243z" />
    <glyph glyph-name="period" unicode="." horiz-adv-x="215" 
d="M74 -8q-22 0 -36.5 15t-14.5 37q0 26 17 43.5t42 17.5q22 0 37 -15t15 -38q0 -26 -18 -43t-42 -17z" />
    <glyph glyph-name="slash" unicode="/" horiz-adv-x="443" 
d="M-26 -40l426 690h65l-425 -690h-66z" />
    <glyph glyph-name="zero" unicode="0" horiz-adv-x="580" 
d="M263 -12q-49 0 -89 18t-68.5 52t-44.5 84t-16 114q0 87 19 155t55 115t86.5 71.5t113.5 24.5q100 0 157.5 -69t57.5 -199q0 -176 -69.5 -271t-201.5 -95zM317 559q-51 0 -88.5 -22.5t-62 -63t-36.5 -96.5t-12 -122q0 -96 35 -150t110 -54q51 0 88.5 22.5t62 63t36.5 96.5
t12 122q0 96 -35 150t-110 54z" />
    <glyph glyph-name="one" unicode="1" horiz-adv-x="344" 
d="M149 0l57 531q-31 -38 -72 -54t-89 -14l7 63q55 -2 96.5 20t73.5 64h64l-65 -610h-72z" />
    <glyph glyph-name="two" unicode="2" horiz-adv-x="487" 
d="M9 0l6 57q90 56 156 106t109.5 97t65 92.5t21.5 91.5q0 54 -30 84.5t-97 30.5q-45 0 -89 -11.5t-76 -26.5l8 68q25 11 68.5 22t91.5 11q56 0 94 -15t61 -40.5t33 -58t10 -66.5q0 -59 -26.5 -111t-70.5 -98.5t-101 -88.5t-118 -80h284l-6 -64h-394z" />
    <glyph glyph-name="three" unicode="3" horiz-adv-x="472" 
d="M294 317q22 -5 42 -15.5t35.5 -27t24.5 -39.5t9 -52q0 -51 -17 -87.5t-47 -60.5t-71 -35.5t-89 -11.5q-55 0 -100 15.5t-76 36.5l6 66q30 -20 72 -37.5t94 -17.5q30 0 58.5 6t50.5 21t35 40t13 64q0 32 -14.5 52.5t-40 32.5t-59.5 16t-72 3l6 61q41 -1 76.5 5t61.5 21
t41 39.5t15 61.5q0 85 -121 85q-39 0 -83.5 -11t-76.5 -26l7 65q28 13 69 24t93 11q37 0 70 -8t58.5 -25.5t40.5 -44.5t15 -65q0 -34 -10.5 -60.5t-28 -46t-40 -33t-46.5 -20.5z" />
    <glyph glyph-name="four" unicode="4" horiz-adv-x="513" 
d="M294 0l14 127h-308l6 56l349 427h74l-44 -421h89l-7 -62h-89l-14 -127h-70zM348 511l-257 -322h224z" />
    <glyph glyph-name="five" unicode="5" horiz-adv-x="499" 
d="M22 102q30 -20 72.5 -35.5t96.5 -15.5q87 0 129.5 36t42.5 114q0 60 -39.5 86.5t-108.5 26.5q-57 0 -95.5 -5t-64.5 -10l46 311h344l-7 -64h-278l-27 -178q17 2 41 5t50 3q103 0 157 -44.5t54 -123.5q0 -106 -64.5 -163t-176.5 -57q-58 0 -105 14t-74 34z" />
    <glyph glyph-name="six" unicode="6" horiz-adv-x="530" 
d="M445 531q-19 11 -46.5 20t-63.5 9q-88 0 -146.5 -64.5t-72.5 -185.5q14 17 34.5 32.5t44.5 27t51 18.5t54 7q46 0 79.5 -14t55.5 -38.5t32.5 -57t10.5 -69.5q0 -52 -17 -94t-46.5 -72t-69 -46t-84.5 -16q-103 0 -160.5 63t-57.5 193q0 93 23 164t62.5 118.5t93 71.5
t113.5 24q37 0 67.5 -9t49.5 -19zM107 228q0 -79 38 -128.5t114 -49.5q26 0 53 9t48.5 28.5t35 51.5t13.5 77q0 24 -6 45.5t-20 38t-37 26.5t-57 10q-52 0 -100 -25.5t-82 -70.5v-12z" />
    <glyph glyph-name="seven" unicode="7" horiz-adv-x="450" 
d="M79 0l281 546h-312l7 64h392l-6 -55l-286 -555h-76z" />
    <glyph glyph-name="eight" unicode="8" horiz-adv-x="522" 
d="M326 309q66 -12 100 -50t34 -92q0 -85 -59 -132t-173 -47q-44 0 -81 10t-63 29t-40.5 46t-14.5 62q0 66 40 109t131 63q0 1 -1 2q-35 8 -58.5 22.5t-38 33.5t-20.5 40.5t-6 44.5q0 38 15 70t42 54.5t66 35t87 12.5q91 0 140.5 -39.5t49.5 -105.5q0 -32 -11 -58t-31 -46
t-47.5 -35.5t-59.5 -26.5zM249 278q-32 -8 -59 -20t-47.5 -29t-32 -38.5t-11.5 -48.5q0 -49 35.5 -72.5t98.5 -23.5q25 0 53 6t51.5 20t39 37.5t15.5 58.5q0 50 -40 75t-103 35zM278 340q25 9 48 20.5t41 27.5t28.5 37t10.5 49q0 40 -30.5 65.5t-90.5 25.5q-66 0 -104 -32
t-38 -81q0 -50 35.5 -75.5t99.5 -36.5z" />
    <glyph glyph-name="nine" unicode="9" horiz-adv-x="530" 
d="M84 79q18 -11 45.5 -20.5t63.5 -9.5q88 0 144.5 64.5t70.5 185.5q-29 -34 -76.5 -59t-107.5 -25q-47 0 -80 14t-54 38t-30.5 55t-9.5 66q0 54 17 97.5t48 73.5t73 46.5t92 16.5q93 0 149 -63.5t56 -193.5q0 -93 -23 -163.5t-63 -118t-93 -71.5t-113 -24q-37 0 -67 9
t-49 19zM417 370q1 41 -7 76t-25.5 60.5t-45 39.5t-64.5 14q-29 0 -56.5 -9t-50 -28.5t-36 -51t-13.5 -76.5q0 -24 6 -46t20 -38.5t36.5 -26.5t56.5 -10q54 0 100 25.5t79 70.5z" />
    <glyph glyph-name="colon" unicode=":" horiz-adv-x="251" 
d="M92 -8q-22 0 -36.5 15t-14.5 37q0 26 17 43.5t42 17.5q22 0 37 -15t15 -38q0 -26 -18 -43t-42 -17zM131 360q-22 0 -36.5 15t-14.5 37q0 26 17 43.5t42 17.5q22 0 37 -15t15 -38q0 -26 -18 -43t-42 -17z" />
    <glyph glyph-name="semicolon" unicode=";" horiz-adv-x="251" 
d="M131 360q-22 0 -36.5 15t-14.5 37q0 26 17 43.5t42 17.5q22 0 37 -15t15 -38q0 -26 -18 -43t-42 -17zM24 -105q18 17 37 44.5t22 53.5q-17 1 -30.5 14.5t-13.5 36.5q0 26 17 43.5t43 17.5q31 0 42.5 -17.5t11.5 -38.5q0 -24 -9 -48.5t-23 -47t-31 -41t-33 -30.5z" />
    <glyph glyph-name="less" unicode="&#x3c;" horiz-adv-x="496" 
d="M28 314l6 56l434 212l-8 -64l-369 -178l331 -178l-6 -60z" />
    <glyph glyph-name="equal" unicode="=" horiz-adv-x="496" 
d="M54 361l6 58h397l-6 -58h-397zM36 191l6 59h397l-6 -59h-397z" />
    <glyph glyph-name="greater" unicode="&#x3e;" horiz-adv-x="496" 
d="M35 102l8 64l367 178l-330 178l5 60l388 -212l-6 -56z" />
    <glyph glyph-name="question" unicode="?" horiz-adv-x="416" 
d="M135 215q31 27 62.5 57.5t56.5 64t40.5 68.5t15.5 71q0 85 -95 85q-45 0 -85.5 -12.5t-69.5 -27.5l6 64q26 14 64 25.5t93 11.5q69 0 114 -33.5t45 -108.5q0 -41 -17.5 -79t-44 -72t-58 -63t-59.5 -51h-68zM143 -8q-22 0 -36.5 15t-14.5 37q0 26 17 43.5t42 17.5
q22 0 37 -15t15 -38q0 -26 -18 -43t-42 -17z" />
    <glyph glyph-name="at" unicode="@" horiz-adv-x="710" 
d="M645 136q-48 -72 -120 -110t-175 -38q-79 0 -137 21.5t-96 60t-56.5 90.5t-18.5 112q0 73 21 143t65 125t111.5 88.5t159.5 33.5q66 0 116.5 -20.5t84.5 -56t51 -82t17 -97.5q0 -54 -14 -103t-38 -86t-57.5 -58.5t-72.5 -21.5q-35 0 -52.5 18.5t-18.5 45.5
q-20 -27 -51 -45.5t-65 -18.5q-60 0 -91 37t-31 100q0 42 12.5 84t36.5 75.5t59.5 54t81.5 20.5q22 0 40 -6.5t31.5 -16.5t22 -22t12.5 -23l21 59h55l-75 -256q-2 -9 -4.5 -18.5t-2.5 -17.5q0 -11 6.5 -19t24.5 -8q24 0 47 17.5t41.5 47.5t30 71t11.5 88q0 45 -13 85t-41 71
t-71 49t-103 18q-64 0 -112.5 -17.5t-84 -46.5t-59 -66t-37.5 -76.5t-20 -78t-6 -70.5q0 -46 13 -90.5t44.5 -80t83.5 -57t130 -21.5q47 0 86 9t70 25t54.5 36t40.5 43h42zM455 385q-2 13 -6.5 27t-13.5 24.5t-24 17.5t-37 7q-30 0 -54.5 -16.5t-41.5 -42.5t-26.5 -59
t-9.5 -67q0 -45 19 -68t48 -23q40 0 65.5 21t44.5 53z" />
    <glyph glyph-name="A" unicode="A" horiz-adv-x="616" 
d="M494 0l-45 150h-310l-78 -150h-79l318 610h80l187 -610h-73zM371 412l-35 131h-2l-62 -131l-100 -199h258z" />
    <glyph glyph-name="B" unicode="B" horiz-adv-x="565" 
d="M39 0l65 610h240q76 0 119.5 -32t43.5 -108q0 -51 -24.5 -90.5t-61.5 -62.5v-2q89 -32 89 -128q0 -54 -19 -89.5t-51.5 -57.5t-75 -31t-89.5 -9h-236zM282 62q28 0 55.5 4t49 17.5t35 38t13.5 65.5q0 31 -10.5 49.5t-28 27.5t-40 11.5t-45.5 2.5h-169l-23 -216h163z
M318 340q54 0 84.5 31t30.5 97q0 39 -22 59.5t-79 20.5h-162l-22 -208h170z" />
    <glyph glyph-name="C" unicode="C" horiz-adv-x="586" 
d="M514 42q-30 -23 -74.5 -38.5t-107.5 -15.5q-62 0 -114.5 19.5t-91 56.5t-60.5 90t-22 120q0 82 25.5 147t71 109.5t108 68t136.5 23.5q63 0 105 -11t68 -25l-7 -73q-32 22 -70 33t-92 11q-59 0 -108.5 -19t-85.5 -55.5t-56 -89t-20 -119.5q0 -53 15.5 -94t44 -69.5
t68.5 -43t89 -14.5q62 0 104 17.5t81 46.5z" />
    <glyph glyph-name="D" unicode="D" horiz-adv-x="620" 
d="M250 65q126 0 188.5 68.5t62.5 215.5q0 106 -49.5 151t-146.5 45h-135l-51 -480h131zM39 0l65 610h204q126 0 196.5 -65.5t70.5 -194.5q0 -172 -83.5 -261t-240.5 -89h-212z" />
    <glyph glyph-name="E" unicode="E" horiz-adv-x="489" 
d="M39 0l65 610h368l-7 -65h-295l-22 -202h269l-6 -64h-269l-23 -214h295l-7 -65h-368z" />
    <glyph glyph-name="F" unicode="F" horiz-adv-x="476" 
d="M139 249l-27 -249h-73l65 610h368l-7 -65h-295l-25 -232h276l-6 -64h-276z" />
    <glyph glyph-name="G" unicode="G" horiz-adv-x="636" 
d="M502 304h72l-26 -248q-40 -29 -94.5 -48.5t-126.5 -19.5q-62 0 -113.5 20t-89.5 56.5t-59 89.5t-21 119q0 83 28.5 148t77 109.5t113.5 68t138 23.5q64 0 110 -11.5t73 -26.5l-7 -72q-34 21 -77.5 33t-97.5 12q-60 0 -112 -18.5t-89.5 -54.5t-59 -89t-21.5 -122
q0 -53 15.5 -94t43.5 -69t66.5 -42t84.5 -14q52 0 85.5 11t64.5 31z" />
    <glyph glyph-name="H" unicode="H" horiz-adv-x="633" 
d="M453 0l30 278h-340l-30 -278h-74l65 610h74l-29 -267h340l29 267h74l-65 -610h-74z" />
    <glyph glyph-name="I" unicode="I" horiz-adv-x="222" 
d="M41 0l65 610h74l-65 -610h-74z" />
    <glyph glyph-name="J" unicode="J" horiz-adv-x="341" 
d="M228 610h74l-46 -439q-11 -98 -55 -139.5t-118 -41.5q-57 0 -90 16l7 65q26 -17 74 -17q24 0 42.5 5.5t31.5 19.5t21.5 37.5t12.5 59.5z" />
    <glyph glyph-name="K" unicode="K" horiz-adv-x="513" 
d="M378 0l-234 320l-33 -320h-72l65 610h72l-29 -269l283 269h87l-295 -282l239 -328h-83z" />
    <glyph glyph-name="L" unicode="L" horiz-adv-x="451" 
d="M39 0l65 610h73l-58 -545h280l-7 -65h-353z" />
    <glyph glyph-name="M" unicode="M" horiz-adv-x="775" 
d="M620 0l7 345l11 176h-2l-72 -166l-171 -355h-71l-95 355l-38 166h-2l-27 -176l-65 -345h-76l122 610h85l108 -402l28 -138h2l55 138l194 402h85l-8 -610h-70z" />
    <glyph glyph-name="N" unicode="N" horiz-adv-x="638" 
d="M460 0l-193 327q-29 48 -57 100t-48 97h-2q0 -42 -4 -89.5t-9 -90.5l-36 -344h-72l65 610h74l193 -327q29 -49 56.5 -100.5t47.5 -96.5h2q0 42 3.5 89.5t8.5 90.5l36 344h73l-65 -610h-73z" />
    <glyph glyph-name="O" unicode="O" horiz-adv-x="714" 
d="M329 53q57 0 105.5 19t84 55t55 89t19.5 121q0 106 -57.5 163t-153.5 57q-57 0 -105 -19t-83 -55.5t-55 -89.5t-20 -121q0 -108 56.5 -163.5t153.5 -55.5zM330 -12q-60 0 -112 19.5t-90.5 56t-61 89t-22.5 119.5q0 82 26.5 147t72.5 110t107.5 69t130.5 24
q60 0 112.5 -19t91 -55t61 -89t22.5 -121q0 -85 -26 -150t-71.5 -109.5t-107.5 -67.5t-133 -23z" />
    <glyph glyph-name="P" unicode="P" horiz-adv-x="542" 
d="M283 291q78 0 119 33.5t41 112.5q0 60 -33.5 84.5t-99.5 24.5h-140l-27 -255h140zM39 0l65 610h205q99 0 153.5 -41t54.5 -132q0 -108 -62 -159t-171 -51h-148l-24 -227h-73z" />
    <glyph glyph-name="Q" unicode="Q" horiz-adv-x="714" 
d="M615 -138q-29 -14 -57.5 -19.5t-55.5 -5.5q-61 0 -110 35t-74 116q-57 2 -107 22t-87 56.5t-58.5 88.5t-21.5 117q0 82 26.5 147t72.5 110t107.5 69t130.5 24q60 0 112.5 -19t91 -55t61 -89t22.5 -121q0 -77 -21.5 -137.5t-59 -104t-89.5 -70t-113 -34.5q16 -51 50 -72
t76 -21q29 0 58 9.5t54 26.5zM329 53q57 0 105.5 19t84 55t55 89t19.5 121q0 106 -57.5 163t-153.5 57q-57 0 -105 -19t-83 -55.5t-55 -89.5t-20 -121q0 -108 56.5 -163.5t153.5 -55.5z" />
    <glyph glyph-name="R" unicode="R" horiz-adv-x="558" 
d="M440 0q-23 72 -62 138.5t-94 120.5h-145l-27 -259h-73l65 610h209q202 0 202 -155q0 -35 -8 -65.5t-27 -55t-49.5 -42t-76.5 -27.5v-2q51 -51 90 -114.5t68 -148.5h-72zM279 323q81 0 122 29.5t41 101.5q0 54 -35 73t-104 19h-133l-24 -223h133z" />
    <glyph glyph-name="S" unicode="S" horiz-adv-x="491" 
d="M23 115q36 -29 84.5 -46.5t105.5 -17.5q25 0 50.5 4.5t45.5 16.5t32.5 33t12.5 53q0 25 -11.5 43.5t-30 33.5t-43 27.5t-51.5 26.5q-25 13 -52 27.5t-49.5 34t-37 46t-14.5 62.5q0 43 16 74t44.5 50.5t68.5 29t88 9.5q49 0 88.5 -9.5t65.5 -21.5l-7 -66q-31 14 -67.5 24
t-81.5 10q-69 0 -105 -21.5t-36 -72.5q0 -23 10.5 -40.5t28.5 -32t41.5 -27.5t49.5 -26q25 -13 53.5 -28t52 -35.5t39 -48t15.5 -65.5q0 -46 -16 -79t-45 -54t-69 -31t-89 -10q-67 0 -116.5 19t-77.5 42z" />
    <glyph glyph-name="T" unicode="T" horiz-adv-x="530" 
d="M195 0l58 546l-204 -1l7 65h482l-7 -65l-204 1l-58 -546h-74z" />
    <glyph glyph-name="U" unicode="U" horiz-adv-x="649" 
d="M538 610h73l-37 -349q-6 -64 -24 -114.5t-50.5 -86t-81.5 -54t-118 -18.5q-133 0 -191 69t-44 204l37 349h74l-36 -342q-12 -114 25.5 -164t132.5 -50q94 0 143 50t61 164z" />
    <glyph glyph-name="V" unicode="V" horiz-adv-x="589" 
d="M223 0l-174 610h74l110 -387l33 -154h1l67 154l190 387h80l-305 -610h-76z" />
    <glyph glyph-name="W" unicode="W" horiz-adv-x="906" 
d="M586 0l-90 417l-18 118h-2l-42 -118l-180 -417h-69l-132 610h73l79 -378l21 -148h2l55 148l163 378h72l83 -378l24 -148h2l53 148l158 378h79l-261 -610h-70z" />
    <glyph glyph-name="X" unicode="X" horiz-adv-x="602" 
d="M468 0l-171 262l-226 -262h-85l273 313l-195 297h78l162 -249l215 249h85l-264 -301l205 -309h-77z" />
    <glyph glyph-name="Y" unicode="Y" horiz-adv-x="579" 
d="M220 0l25 236l-194 374h73l101 -200l57 -121h4l82 121l144 200h80l-273 -374l-25 -236h-74z" />
    <glyph glyph-name="Z" unicode="Z" horiz-adv-x="532" 
d="M10 0l6 57l391 491l-327 -2l7 64h415l-6 -57l-391 -490l355 1l-7 -64h-443z" />
    <glyph glyph-name="bracketleft" unicode="[" horiz-adv-x="270" 
d="M42 -136l84 798h152l-6 -58h-84l-72 -681h84l-6 -59h-152z" />
    <glyph glyph-name="backslash" unicode="\" horiz-adv-x="443" 
d="M327 -40l-280 690h66l279 -690h-65z" />
    <glyph glyph-name="bracketright" unicode="]" horiz-adv-x="270" 
d="M-19 -136l6 59h85l72 681h-85l6 58h152l-84 -798h-152z" />
    <glyph glyph-name="asciicircum" unicode="^" horiz-adv-x="492" 
d="M382 252l-108 293l-170 -293h-68l211 358h58l137 -358h-60z" />
    <glyph glyph-name="underscore" unicode="_" horiz-adv-x="342" 
d="M-44 -101l5 40h342l-5 -40h-342z" />
    <glyph glyph-name="grave" unicode="`" horiz-adv-x="310" 
d="M195 512l-95 138h79l62 -138h-46z" />
    <glyph glyph-name="a" unicode="a" horiz-adv-x="526" 
d="M366 0l2 97q-7 -18 -20 -37t-32.5 -35t-45 -26.5t-56.5 -10.5q-39 0 -72 11.5t-57 36t-37 62t-13 90.5q0 128 65.5 201t194.5 73q43 0 85 -10.5t87 -27.5l-44 -424h-57zM392 380q-21 9 -42.5 15t-53.5 6q-51 0 -87 -17t-58.5 -46t-32.5 -66.5t-10 -78.5q0 -79 32.5 -112
t83.5 -33q26 0 47.5 10t39 27t32 38.5t26.5 44.5z" />
    <glyph glyph-name="b" unicode="b" horiz-adv-x="536" 
d="M105 650h72l-31 -291q23 45 67 74t102 29q43 0 74.5 -14.5t52 -41t30.5 -63t10 -80.5q0 -77 -17 -130t-47 -85t-71 -46t-88 -14q-54 0 -110 13.5t-107 39.5zM116 76q24 -12 60 -20t87 -8q29 0 55.5 12t46.5 37.5t32 65t12 93.5q0 66 -25 106t-82 40q-26 0 -49.5 -10
t-44.5 -26t-38.5 -37t-30.5 -43z" />
    <glyph glyph-name="c" unicode="c" horiz-adv-x="466" 
d="M394 39q-29 -24 -64 -37.5t-84 -13.5t-88 16t-66.5 45t-42 69t-14.5 88q0 53 18 100t51.5 81.5t81 54.5t107.5 20q49 0 82 -10t56 -24l-7 -63q-26 18 -56.5 28.5t-72.5 10.5t-76 -15t-59 -41.5t-38.5 -63t-13.5 -78.5q0 -35 10 -64.5t28.5 -50.5t44 -33t57.5 -12
q49 0 83.5 14t69.5 43z" />
    <glyph glyph-name="d" unicode="d" horiz-adv-x="536" 
d="M375 0l2 97q-7 -18 -21 -37.5t-34 -35t-46.5 -26t-58.5 -10.5q-39 0 -72.5 11.5t-57.5 36t-38 62t-14 90.5q0 60 16.5 110t47 86.5t73 57t94.5 20.5q51 0 82.5 -16.5t56.5 -39.5l24 244h71l-68 -650h-57zM398 347q-26 27 -56 40.5t-76 13.5q-39 0 -68.5 -17t-49.5 -46
t-30 -66.5t-10 -78.5q0 -39 9 -67t25.5 -45t38 -25t47.5 -8q29 0 51.5 10t40.5 27t32 38.5t26 44.5z" />
    <glyph glyph-name="e" unicode="e" horiz-adv-x="511" 
d="M411 44q-29 -27 -70 -41.5t-83 -14.5q-57 0 -99 16t-69.5 44t-41 66.5t-13.5 84.5q0 55 18 103t51.5 83.5t82 56t110.5 20.5q39 0 69.5 -10t51 -28t31.5 -42t11 -52q0 -48 -30.5 -78.5t-80.5 -48t-114.5 -24t-131.5 -6.5q8 -128 157 -128q45 0 81 15.5t77 49.5zM104 223
q48 0 99.5 5t94 17.5t70 33t27.5 52.5q0 35 -24 53t-76 18q-45 0 -79.5 -14t-58.5 -38.5t-37.5 -57t-15.5 -69.5z" />
    <glyph glyph-name="f" unicode="f" horiz-adv-x="345" 
d="M47 -215l63 608h-80l6 57h80l4 45q8 85 53 126t120 41q22 0 42.5 -4t34.5 -10l-7 -60q-13 5 -29.5 9t-36.5 4q-48 0 -73.5 -24t-32.5 -85l-5 -42h146l-6 -57h-144l-63 -608h-72z" />
    <glyph glyph-name="g" unicode="g" horiz-adv-x="526" 
d="M392 380q-21 9 -42.5 15t-53.5 6q-51 0 -87 -17t-58.5 -46t-32.5 -66.5t-10 -78.5q0 -79 32.5 -112t83.5 -33q26 0 47.5 10t39 27t32 38.5t26.5 44.5zM368 97q-7 -18 -20 -37t-32.5 -35t-45 -26.5t-56.5 -10.5q-39 0 -72 11.5t-57 36t-37 62t-13 90.5q0 128 65.5 201
t194.5 73q43 0 85 -10.5t87 -27.5l-45 -447q-11 -102 -59 -146.5t-145 -44.5q-60 0 -108.5 14t-80.5 31l7 66q33 -19 73 -35t102 -16q33 0 57.5 6t42 21.5t28 41.5t16.5 67z" />
    <glyph glyph-name="h" unicode="h" horiz-adv-x="549" 
d="M377 0l29 278q1 8 1.5 14.5t0.5 12.5q0 51 -20 73t-55 22q-34 0 -62 -10t-51.5 -26t-43 -36t-36.5 -41l-31 -287h-72l68 650h72l-30 -293q16 20 36.5 39t44.5 33.5t52 23.5t60 9q63 0 102 -41t39 -116q0 -7 -0.5 -14.5t-1.5 -15.5l-29 -275h-73z" />
    <glyph glyph-name="i" unicode="i" horiz-adv-x="213" 
d="M37 0l48 450h72l-48 -450h-72zM188 586q0 -24 -14.5 -40t-44.5 -16q-24 0 -35.5 12.5t-11.5 31.5q0 24 14.5 40.5t43.5 16.5q25 0 36.5 -12.5t11.5 -32.5z" />
    <glyph glyph-name="j" unicode="j" horiz-adv-x="222" 
d="M196 586q0 -24 -14.5 -40t-42.5 -16q-25 0 -36.5 13t-11.5 33q0 24 15 39.5t43 15.5q23 0 35 -12.5t12 -32.5zM-81 -155q11 -4 21.5 -6.5t23.5 -2.5q37 0 53 17.5t21 59.5l56 537h72l-56 -531q-2 -18 -7 -43t-18.5 -47t-38.5 -37.5t-67 -15.5q-17 0 -34 3.5t-31 8.5z" />
    <glyph glyph-name="k" unicode="k" horiz-adv-x="458" 
d="M330 0l-196 243l-25 -243h-72l68 650h72l-41 -391l212 191h92l-229 -203l197 -247h-78z" />
    <glyph glyph-name="l" unicode="l" horiz-adv-x="211" 
d="M37 0l68 650h71l-68 -650h-71z" />
    <glyph glyph-name="m" unicode="m" horiz-adv-x="810" 
d="M640 0l30 283q1 8 1.5 15.5t0.5 15.5q0 45 -17.5 65.5t-56.5 20.5q-26 0 -49.5 -9.5t-43.5 -25t-36.5 -35t-28.5 -38.5l-31 -292h-72l30 283q1 8 1.5 15.5t0.5 17.5q0 43 -15.5 63.5t-50.5 20.5q-27 0 -50 -8.5t-43.5 -23.5t-38 -34.5t-32.5 -41.5l-31 -292h-73l47 450
h61v-93q27 43 69.5 74t101.5 31q52 0 82 -29t40 -77q14 21 32 40t40 33.5t48.5 23.5t57.5 9q129 0 129 -139q0 -8 -0.5 -17t-1.5 -18l-30 -288h-71z" />
    <glyph glyph-name="n" unicode="n" horiz-adv-x="545" 
d="M375 0l29 275q7 66 -15 95.5t-62 29.5q-32 0 -59 -9.5t-50 -25t-43 -36.5t-37 -44l-30 -285h-73l47 450h61l-2 -97q16 20 36.5 39.5t46 35t55 25t62.5 9.5q69 0 106.5 -44t28.5 -134l-30 -284h-71z" />
    <glyph glyph-name="o" unicode="o" horiz-adv-x="557" 
d="M248 -12q-49 0 -88.5 15t-67 43t-42.5 67t-15 86q0 54 18 102t51 84t80 56.5t106 20.5q49 0 88.5 -16t67.5 -44t43 -66t15 -83q0 -57 -18.5 -105.5t-52 -84t-80.5 -55.5t-105 -20zM249 46q39 0 72.5 15t57.5 42t37.5 63.5t13.5 80.5q0 69 -38 113t-104 44q-39 0 -72 -15
t-57 -42t-37.5 -63.5t-13.5 -79.5q0 -69 37.5 -113.5t103.5 -44.5z" />
    <glyph glyph-name="p" unicode="p" horiz-adv-x="534" 
d="M12 -215l70 665h63l1 -95q13 21 30.5 40.5t39.5 34t48 23.5t56 9q41 0 71 -15.5t49.5 -42.5t29 -62.5t9.5 -75.5q0 -68 -17 -119.5t-47 -87t-71 -53.5t-89 -18q-42 0 -77.5 17t-64.5 48l-28 -268h-73zM122 117q17 -35 51 -52t79 -17q33 0 61.5 14t49.5 41.5t33 68
t12 94.5q0 64 -24 100t-78 36q-55 0 -97 -33.5t-71 -84.5z" />
    <glyph glyph-name="q" unicode="q" horiz-adv-x="526" 
d="M332 -215l36 312q-7 -18 -20 -37t-32.5 -35t-45 -26.5t-56.5 -10.5q-39 0 -72 11.5t-57 36t-37 62t-13 90.5q0 128 65.5 201t194.5 73q43 0 85 -10.5t87 -27.5l-66 -639h-69zM392 380q-21 9 -42.5 15t-53.5 6q-51 0 -87 -17t-58.5 -46t-32.5 -66.5t-10 -78.5
q0 -79 32.5 -112t83.5 -33q26 0 47.5 10t39 27t32 38.5t26.5 44.5z" />
    <glyph glyph-name="r" unicode="r" horiz-adv-x="359" 
d="M35 0l47 450h59l-1 -120h2q15 26 33 50.5t43 42.5t58 27t77 4l-9 -74q-42 1 -73.5 -8.5t-55.5 -26.5t-43 -40t-37 -50l-27 -255h-73z" />
    <glyph glyph-name="s" unicode="s" horiz-adv-x="401" 
d="M17 97q28 -20 69.5 -35.5t89.5 -15.5q54 0 75 16.5t21 51.5q0 32 -26 52t-83 40q-23 8 -44.5 18.5t-38 26t-26.5 36t-10 48.5q0 57 44 92t132 35q39 0 70.5 -8.5t53.5 -19.5l-7 -59q-20 11 -48.5 20.5t-64.5 9.5q-114 0 -114 -66q0 -17 8 -29t21.5 -21.5t31.5 -17.5
t39 -16q22 -9 45 -19.5t41.5 -26.5t30.5 -39t12 -56q0 -63 -43 -94.5t-118 -31.5q-24 0 -48.5 4t-47 10.5t-41 15t-30.5 16.5z" />
    <glyph glyph-name="t" unicode="t" horiz-adv-x="373" 
d="M307 17q-17 -12 -40 -20.5t-57 -8.5q-64 0 -96 30.5t-32 96.5q0 8 0.5 16t1.5 16l26 246h-80l6 57h81l34 142h50l-15 -142h165l-6 -57h-165l-26 -240q-1 -9 -1.5 -17t-0.5 -16q0 -40 15.5 -57t52.5 -17q25 0 49.5 8.5t43.5 22.5z" />
    <glyph glyph-name="u" unicode="u" horiz-adv-x="531" 
d="M370 0l1 97h-2q-14 -21 -31 -40.5t-38.5 -35t-49 -24.5t-61.5 -9q-63 0 -102 35.5t-39 107.5v13t1 14l31 292h73l-30 -282q-1 -8 -1.5 -14.5t-0.5 -12.5q0 -49 21 -70t54 -21t59.5 10t48 26.5t39 37t31.5 42.5l31 284h72l-47 -450h-60z" />
    <glyph glyph-name="v" unicode="v" horiz-adv-x="464" 
d="M164 0l-131 450h72l64 -242l33 -144h2l62 144l116 242h77l-225 -450h-70z" />
    <glyph glyph-name="w" unicode="w" horiz-adv-x="711" 
d="M439 0l-60 281q-5 26 -8 51.5t-8 51.5h-2q-8 -26 -17.5 -51.5t-19.5 -51.5l-119 -281h-67l-101 450h68l56 -276l13 -106h2l40 106l118 276h67l60 -276l15 -106h2l38 106l113 276h73l-195 -450h-68z" />
    <glyph glyph-name="x" unicode="x" horiz-adv-x="477" 
d="M347 0l-123 186l-160 -186h-81l208 232l-149 218h79l113 -173l150 173h79l-194 -218l159 -232h-81z" />
    <glyph glyph-name="y" unicode="y" horiz-adv-x="476" 
d="M173 0l-140 450h69l75 -255l34 -128h2l66 143l117 240h75l-284 -555q-15 -29 -28 -51.5t-27.5 -38t-33 -23.5t-45.5 -8q-22 0 -44.5 5t-38.5 12l7 61q15 -8 34.5 -14t42.5 -6q27 0 41.5 18.5t32.5 56.5z" />
    <glyph glyph-name="z" unicode="z" horiz-adv-x="437" 
d="M3 0l5 52l298 339l-250 -1l6 60h337l-5 -52l-299 -339l275 1l-6 -60h-361z" />
    <glyph glyph-name="braceleft" unicode="{" horiz-adv-x="270" 
d="M203 -125q-21 -8 -45 -8q-48 0 -71 31t-18 82l18 166q5 52 -11 72.5t-47 22.5l5 48q31 2 51.5 22.5t26.5 72.5l18 166q5 51 34.5 82t77.5 31q24 0 43 -8l-5 -52q-20 6 -33 6q-25 0 -37.5 -14.5t-17.5 -58.5l-17 -157q-5 -52 -27.5 -77t-54.5 -37q29 -12 46.5 -37
t11.5 -77l-17 -157q-5 -44 5 -58.5t35 -14.5q14 0 35 6z" />
    <glyph glyph-name="bar" unicode="|" horiz-adv-x="230" 
d="M28 -215l92 865h62l-92 -865h-62z" />
    <glyph glyph-name="braceright" unicode="}" horiz-adv-x="270" 
d="M-21 -73q21 -6 34 -6q24 0 37 14.5t18 58.5l17 157q6 52 28 77t54 37q-29 12 -46 37t-12 77l16 157q5 44 -5 58.5t-34 14.5q-14 0 -35 -6l6 52q19 8 45 8q48 0 70.5 -31t17.5 -82l-18 -166q-6 -52 11 -72.5t48 -22.5l-6 -48q-30 -2 -51.5 -22.5t-26.5 -72.5l-17 -166
q-5 -51 -34.5 -82t-77.5 -31q-26 0 -44 8z" />
    <glyph glyph-name="asciitilde" unicode="~" horiz-adv-x="437" 
d="M387 288q-27 -22 -51.5 -33.5t-47.5 -11.5q-25 0 -43 9.5t-34 20.5t-32.5 20.5t-37.5 9.5q-28 0 -50.5 -14t-50.5 -39l8 71q18 15 42.5 29.5t56.5 14.5q25 0 43 -9t34 -20t32.5 -20t38.5 -9q48 0 100 52z" />
    <glyph glyph-name="uni007F" horiz-adv-x="427" 
 />
    <glyph glyph-name="nonbreakingspace" unicode="&#xa0;" horiz-adv-x="246" 
 />
    <glyph glyph-name="exclamdown" unicode="&#xa1;" horiz-adv-x="232" 
d="M27 -160l54 395h56l-30 -395h-80zM120 346q-22 0 -35.5 14t-13.5 36q0 27 18 44.5t43 17.5q21 0 35 -14t14 -37q0 -27 -18.5 -44t-42.5 -17z" />
    <glyph glyph-name="cent" unicode="&#xa2;" horiz-adv-x="580" 
d="M274 -100l8 90q-48 4 -85 22t-62.5 46.5t-39 66t-13.5 81.5q0 52 18 96.5t50.5 78t79 54.5t103.5 26l9 89h52l-9 -88q40 -2 71.5 -12.5t53.5 -23.5l-7 -60q-26 18 -62.5 28.5t-78.5 10.5q-48 0 -86.5 -15t-65 -41.5t-41 -63t-14.5 -78.5q0 -35 11 -64.5t33 -51t53 -33.5
t72 -12q40 0 80.5 13t74.5 33l-7 -62q-26 -15 -60.5 -27t-77.5 -14l-8 -89h-52z" />
    <glyph glyph-name="sterling" unicode="&#xa3;" horiz-adv-x="580" 
d="M51 0l6 59q27 18 44.5 35t28 35t16 37.5t8.5 43.5l12 114h-80l4 49h81l6 55q5 46 23.5 82t48.5 60.5t69 37.5t84 13q35 0 67.5 -7t49.5 -16l-7 -62q-15 8 -42.5 15.5t-61.5 7.5q-66 0 -108.5 -33t-50.5 -99l-6 -54h167l-4 -49h-168l-12 -116q-5 -51 -29 -86t-56 -58h341
l-7 -64h-424z" />
    <glyph glyph-name="currency" unicode="&#xa4;" horiz-adv-x="560" 
d="M467 85l-62 63q-27 -19 -55.5 -29t-62.5 -10t-62.5 10t-55.5 29l-62 -63l-41 40l63 63q-19 25 -29.5 55.5t-10.5 63.5q0 65 39 118l-62 62l41 40l62 -62q25 19 55 29.5t63 10.5t63 -10.5t55 -29.5l62 62l41 -40l-62 -62q39 -53 39 -118q0 -33 -10.5 -63.5t-29.5 -55.5
l63 -63zM287 454q-30 0 -56.5 -11.5t-46 -32t-30.5 -47t-11 -56.5t11 -56.5t30.5 -47t46 -32t56.5 -11.5t56.5 11.5t46 32t30.5 47t11 56.5t-11 56.5t-30.5 47t-46 32t-56.5 11.5z" />
    <glyph glyph-name="yen" unicode="&#xa5;" horiz-adv-x="581" 
d="M311 151l-16 -151h-74l16 151h-148l5 49h148l7 61h-148l5 49h117l-158 300h74l148 -303h4l211 303h78l-223 -300h118l-5 -49h-147l-7 -61h147l-5 -49h-147z" />
    <glyph glyph-name="brokenbar" unicode="&#xa6;" horiz-adv-x="256" 
d="M101 296v354h68v-354h-68zM101 -215v354h68v-354h-68z" />
    <glyph glyph-name="section" unicode="&#xa7;" horiz-adv-x="580" 
d="M76 -127q26 -13 64.5 -23.5t83.5 -10.5q57 0 90 20.5t33 62.5q0 30 -21 51t-52.5 39t-68 35.5t-68 40t-52.5 53t-21 75.5q0 60 37.5 104.5t97.5 75.5q-23 20 -38.5 48t-15.5 65q0 39 16 67t43 46t62.5 27t75.5 9q19 0 40 -2.5t41 -6t37.5 -8.5t29.5 -10l-8 -65
q-28 12 -62.5 21t-76.5 9q-54 0 -92 -20.5t-38 -61.5q0 -20 10 -35.5t26 -28.5t37 -24.5t43 -22.5q25 -13 54.5 -29t54.5 -37.5t41.5 -49.5t16.5 -65q0 -31 -13 -58t-32.5 -50t-44 -42t-46.5 -34q29 -25 41.5 -53t12.5 -58q0 -38 -15.5 -66.5t-41.5 -47t-60.5 -27.5
t-73.5 -9q-46 0 -88.5 8t-66.5 19zM308 70q18 12 38.5 27t38.5 34t30 40.5t12 45.5q0 25 -13.5 44.5t-34 35t-46 28t-49.5 24.5l-33 16q-51 -24 -84.5 -60t-33.5 -84q0 -26 13 -45.5t33.5 -35.5t45.5 -28.5l49 -24.5z" />
    <glyph glyph-name="dieresis" unicode="&#xa8;" horiz-adv-x="310" 
d="M73 532q-23 0 -34 12t-11 30q0 24 13.5 39.5t40.5 15.5q23 0 34 -11.5t11 -30.5q0 -23 -12.5 -39t-41.5 -16zM338 586q0 -23 -13.5 -38.5t-41.5 -15.5q-23 0 -34 12t-11 30q0 24 13 39.5t41 15.5q23 0 34.5 -12t11.5 -31z" />
    <glyph glyph-name="copyright" unicode="&#xa9;" horiz-adv-x="732" 
d="M689 303q0 -66 -24 -122.5t-66.5 -98.5t-100.5 -65.5t-125 -23.5q-68 0 -125.5 23.5t-100 65.5t-66.5 98.5t-24 122.5t24 122.5t66.5 98.5t100 65.5t125.5 23.5q67 0 125 -23.5t100.5 -65.5t66.5 -98.5t24 -122.5zM646 303q0 58 -20 108t-56 86t-86.5 56.5t-110.5 20.5
t-110 -20.5t-86 -56.5t-56 -86t-20 -108q0 -59 20 -108.5t56 -85.5t86 -56t110 -20t110 20t86 56t56.5 85.5t20.5 108.5zM509 139q-23 -14 -50.5 -21t-69.5 -7q-45 0 -82 14.5t-63.5 40t-41 60.5t-14.5 77q0 40 14.5 75t41 60.5t63.5 40t82 14.5q40 0 68 -8t49 -19v-53
q-24 14 -51.5 23.5t-62.5 9.5q-66 0 -102.5 -40t-36.5 -103q0 -32 10 -58.5t28 -45.5t44 -30t58 -11t61 8.5t55 24.5v-52z" />
    <glyph glyph-name="ordfeminine" unicode="&#xaa;" horiz-adv-x="407" 
d="M292 280l1 66q-5 -13 -15 -26t-24.5 -24t-33.5 -18t-41 -7q-26 0 -48.5 8.5t-39 27t-26.5 46.5t-10 67q0 94 52.5 147.5t140.5 53.5q31 0 63 -8t68 -22l-33 -311h-54zM310 556q-14 5 -28 9t-34 4q-35 0 -59 -12.5t-40 -32.5t-23 -46.5t-7 -54.5q0 -53 21 -75.5t47 -22.5
q42 0 67.5 26.5t40.5 64.5z" />
    <glyph glyph-name="guillemotleft" unicode="&#xab;" horiz-adv-x="435" 
d="M129 62l-110 209l155 212h69l-155 -211l110 -210h-69zM299 62l-109 209l154 212h70l-156 -211l111 -210h-70z" />
    <glyph glyph-name="logicalnot" unicode="&#xac;" horiz-adv-x="513" 
d="M372 174l22 203h-330l7 61h397l-29 -264h-67z" />
    <glyph glyph-name="hypen" unicode="&#xad;" horiz-adv-x="326" 
d="M42 272v65h256v-65h-256z" />
    <glyph glyph-name="registered" unicode="&#xae;" horiz-adv-x="732" 
d="M689 303q0 -66 -24 -122.5t-66.5 -98.5t-100.5 -65.5t-125 -23.5q-68 0 -125.5 23.5t-100 65.5t-66.5 98.5t-24 122.5t24 122.5t66.5 98.5t100 65.5t125.5 23.5q67 0 125 -23.5t100.5 -65.5t66.5 -98.5t24 -122.5zM646 303q0 58 -20 108t-56 86t-86.5 56.5t-110.5 20.5
t-110 -20.5t-86 -56.5t-56 -86t-20 -108q0 -59 20 -108.5t56 -85.5t86 -56t110 -20t110 20t86 56t56.5 85.5t20.5 108.5zM471 125l-31 102q-4 12 -8.5 21t-11.5 15t-18.5 9t-29.5 3h-69v-150h-59v364h137q67 0 100.5 -26.5t33.5 -74.5q0 -39 -21 -60.5t-49 -30.5v-1
q23 -8 34 -21.5t19 -39.5l35 -110h-62zM343 323q24 0 44.5 1t35.5 7t23.5 19t8.5 37q0 19 -5.5 30t-18 17t-34.5 7.5t-55 1.5h-39v-120h40z" />
    <glyph glyph-name="macron" unicode="&#xaf;" horiz-adv-x="310" 
d="M47 538l6 55h264l-6 -55h-264z" />
    <glyph glyph-name="degree" unicode="&#xb0;" horiz-adv-x="306" 
d="M168 427q-48 0 -78 31.5t-30 77.5q0 27 9.5 50t27 39.5t40.5 26t50 9.5q24 0 43.5 -8.5t34 -22.5t22.5 -34t8 -42q0 -27 -9.5 -50t-26.5 -40.5t-40.5 -27t-50.5 -9.5zM170 470q35 0 57 23.5t22 58.5q0 30 -17 48.5t-47 18.5q-35 0 -57 -24t-22 -59q0 -29 17 -47.5
t47 -18.5z" />
    <glyph glyph-name="plusminus" unicode="&#xb1;" horiz-adv-x="496" 
d="M278 289l-21 -197h-64l21 197h-178l6 61h178l21 196h64l-21 -196h178l-6 -61h-178zM5 0l5 52h420l-5 -52h-420z" />
    <glyph glyph-name="twosuperior" unicode="&#xb2;" horiz-adv-x="352" 
d="M39 287l5 43q106 60 161.5 114.5t55.5 108.5q0 29 -17.5 45.5t-59.5 16.5q-26 0 -55 -7.5t-49 -16.5l4 47q17 7 45 14.5t60 7.5q69 0 97 -30t28 -76q0 -34 -14.5 -64.5t-39 -57.5t-58 -51.5t-71.5 -46.5h167l-6 -47h-253z" />
    <glyph glyph-name="threesuperior" unicode="&#xb3;" horiz-adv-x="342" 
d="M44 362q26 -17 56 -26t59 -9q38 0 63 14.5t25 56.5q0 35 -33.5 47.5t-84.5 10.5l4 41q57 -1 89.5 13.5t32.5 56.5q0 47 -75 47q-12 0 -26 -2t-28 -5t-27 -7t-23 -9l4 46q17 8 46 15.5t60 7.5q25 0 47 -5.5t38 -16.5t25.5 -28t9.5 -41q0 -39 -20.5 -59t-49.5 -31v-1
q28 -9 46 -31.5t18 -54.5q0 -55 -38 -83t-104 -28q-36 0 -68 9t-51 23z" />
    <glyph glyph-name="acute" unicode="&#xb4;" horiz-adv-x="310" 
d="M107 512l90 138h86l-123 -138h-53z" />
    <glyph glyph-name="mu" unicode="&#xb5;" horiz-adv-x="532" 
d="M12 -215l70 665h73l-33 -314q20 -34 54.5 -60t88.5 -26q48 0 77 27t36 91l30 282h71l-31 -292q-9 -86 -54.5 -128t-110.5 -42t-105.5 26.5t-61.5 60.5h-2q-2 -20 -3.5 -41t-3.5 -42l-22 -207h-73z" />
    <glyph glyph-name="paragraph" unicode="&#xb6;" horiz-adv-x="525" 
d="M333 -215l84 797h-82l-84 -797h-57l46 438h-2q-42 0 -77 15.5t-60.5 41.5t-40 61.5t-14.5 76.5q0 48 19 90t51.5 73.5t75.5 50t91 18.5h198l-91 -865h-57z" />
    <glyph glyph-name="periodcentered" unicode="&#xb7;" horiz-adv-x="218" 
d="M103 234q-22 0 -36.5 15t-14.5 37q0 26 17 43.5t42 17.5q22 0 37 -15t15 -38q0 -26 -18 -43t-42 -17z" />
    <glyph glyph-name="cedilla" unicode="&#xb8;" horiz-adv-x="310" 
d="M56 -143q9 -3 22 -6t33 -3q22 0 40 8t18 31t-24.5 31t-58.5 9l24 80l37 -4q-2 -8 -5 -23.5t-4 -23.5q17 -1 32.5 -5.5t27.5 -12.5t19 -21t7 -31q0 -26 -10.5 -42.5t-27 -26.5t-37 -14t-39.5 -4q-20 0 -34 2.5t-25 5.5z" />
    <glyph glyph-name="onesuperior" unicode="&#xb9;" horiz-adv-x="248" 
d="M115 287l31 301q-19 -23 -43 -31.5t-56 -7.5l5 50q38 -2 63.5 13t45.5 41h46l-39 -366h-53z" />
    <glyph glyph-name="ordmasculine" unicode="&#xba;" horiz-adv-x="402" 
d="M200 272q-37 0 -66 12t-49.5 33.5t-31.5 50.5t-11 62q0 39 13.5 74t38 61t59 41t77.5 15q37 0 66 -12t49.5 -33.5t31.5 -50t11 -61.5q0 -40 -13.5 -75t-38 -61t-59 -41t-77.5 -15zM202 320q27 0 49.5 11t38 30t24.5 45.5t9 56.5q0 48 -23 79t-71 31q-27 0 -49.5 -11
t-39 -30t-25.5 -45t-9 -56q0 -49 24 -80t72 -31z" />
    <glyph glyph-name="guillemotright" unicode="&#xbb;" horiz-adv-x="435" 
d="M185 62l155 210l-111 211h69l109 -212l-153 -209h-69zM14 62l154 210l-110 211h69l109 -212l-153 -209h-69z" />
    <glyph glyph-name="onequarter" unicode="&#xbc;" horiz-adv-x="721" 
d="M147 0h-58l500 610h56zM547 0l8 74h-190l4 36l220 256h50l-27 -249h57l-4 -43h-57l-8 -74h-53zM578 292l-146 -175h127zM149 244l31 301q-19 -23 -43 -31.5t-56 -7.5l5 50q38 -2 63.5 13t45.5 41h46l-39 -366h-53z" />
    <glyph glyph-name="onehalf" unicode="&#xbd;" horiz-adv-x="721" 
d="M118 0h-58l500 610h56zM149 244l31 301q-19 -23 -43 -31.5t-56 -7.5l5 50q38 -2 63.5 13t45.5 41h46l-39 -366h-53zM387 0l5 43q106 60 161.5 114.5t55.5 108.5q0 29 -17.5 45.5t-59.5 16.5q-26 0 -55 -7.5t-49 -16.5l4 47q17 7 45 14.5t60 7.5q69 0 97 -30t28 -76
q0 -34 -14.5 -64.5t-39 -57.5t-58 -51.5t-71.5 -46.5h167l-6 -47h-253z" />
    <glyph glyph-name="threequarters" unicode="&#xbe;" horiz-adv-x="721" 
d="M547 0l8 74h-190l4 36l220 256h50l-27 -249h57l-4 -43h-57l-8 -74h-53zM578 292l-146 -175h127zM39 318q26 -17 56 -26t59 -9q38 0 63 14.5t25 56.5q0 35 -33.5 47.5t-84.5 10.5l4 41q57 -1 89.5 13.5t32.5 56.5q0 47 -75 47q-12 0 -26 -2t-28 -5t-27 -7t-23 -9l4 46
q17 8 46 15.5t60 7.5q25 0 47 -5.5t38 -16.5t25.5 -28t9.5 -41q0 -39 -20.5 -59t-49.5 -31v-1q28 -9 46 -31.5t18 -54.5q0 -55 -38 -83t-104 -28q-36 0 -68 9t-51 23zM164 0h-58l500 610h56z" />
    <glyph glyph-name="questiondown" unicode="&#xbf;" horiz-adv-x="409" 
d="M330 -135q-26 -13 -68 -24.5t-96 -11.5q-66 0 -109 32.5t-43 102.5q0 43 17.5 81.5t44.5 72.5t58.5 63.5t59.5 53.5h67q-31 -27 -62 -58t-56 -64t-40.5 -68t-15.5 -71q0 -84 94 -84q45 0 85.5 10.5t69.5 24.5zM306 407q0 -27 -19.5 -44t-44.5 -17q-21 0 -35 14.5
t-14 36.5q0 27 18.5 44t43.5 17q21 0 36 -14t15 -37z" />
    <glyph glyph-name="Agrave" unicode="&#xc0;" horiz-adv-x="616" 
d="M494 0l-45 150h-310l-78 -150h-79l318 610h80l187 -610h-73zM371 412l-35 131h-2l-62 -131l-100 -199h258zM321 672l-95 138h79l62 -138h-46z" />
    <glyph glyph-name="Aacute" unicode="&#xc1;" horiz-adv-x="616" 
d="M494 0l-45 150h-310l-78 -150h-79l318 610h80l187 -610h-73zM371 412l-35 131h-2l-62 -131l-100 -199h258zM303 672l90 138h86l-123 -138h-53z" />
    <glyph glyph-name="Acircumflex" unicode="&#xc2;" horiz-adv-x="616" 
d="M494 0l-45 150h-310l-78 -150h-79l318 610h80l187 -610h-73zM371 412l-35 131h-2l-62 -131l-100 -199h258zM432 672l-74 80l-90 -80h-58l123 133h53l96 -133h-50z" />
    <glyph glyph-name="Atilde" unicode="&#xc3;" horiz-adv-x="616" 
d="M494 0l-45 150h-310l-78 -150h-79l318 610h80l187 -610h-73zM371 412l-35 131h-2l-62 -131l-100 -199h258zM495 781q-2 -45 -22.5 -72t-60.5 -27q-20 0 -35 8t-28.5 18t-26.5 18t-28 8q-20 0 -28 -14t-9 -33h-46q2 46 23 72.5t60 26.5q20 0 35 -8t28 -18t26 -18t28 -8
q18 0 28 13.5t10 33.5h46z" />
    <glyph glyph-name="Adieresis" unicode="&#xc4;" horiz-adv-x="616" 
d="M494 0l-45 150h-310l-78 -150h-79l318 610h80l187 -610h-73zM371 412l-35 131h-2l-62 -131l-100 -199h258zM242 692q-23 0 -34 12t-11 30q0 24 13.5 39.5t40.5 15.5q23 0 34 -11.5t11 -30.5q0 -23 -12.5 -39t-41.5 -16zM507 746q0 -23 -13.5 -38.5t-41.5 -15.5
q-23 0 -34 12t-11 30q0 24 13 39.5t41 15.5q23 0 34.5 -12t11.5 -31z" />
    <glyph glyph-name="Aring" unicode="&#xc5;" horiz-adv-x="616" 
d="M494 0l-45 150h-310l-78 -150h-79l318 610h80l187 -610h-73zM371 412l-35 131h-2l-62 -131l-100 -199h258zM348 651q-42 0 -67.5 24t-25.5 60q0 42 28 70.5t76 28.5q42 0 67.5 -24t25.5 -59q0 -43 -28 -71.5t-76 -28.5zM359 795q-26 0 -42 -16t-16 -42q0 -21 12.5 -34
t34.5 -13q26 0 42 16t16 42q0 21 -12.5 34t-34.5 13z" />
    <glyph glyph-name="AE" unicode="&#xc6;" horiz-adv-x="832" 
d="M390 0l16 148h-234l-108 -148h-80l449 610h382l-7 -65h-289l-22 -202h263l-7 -64h-263l-22 -214h289l-7 -65h-360zM447 530l-230 -319h196z" />
    <glyph glyph-name="Ccedilla" unicode="&#xc7;" horiz-adv-x="586" 
d="M514 42q-30 -23 -74.5 -38.5t-107.5 -15.5q-62 0 -114.5 19.5t-91 56.5t-60.5 90t-22 120q0 82 25.5 147t71 109.5t108 68t136.5 23.5q63 0 105 -11t68 -25l-7 -73q-32 22 -70 33t-92 11q-59 0 -108.5 -19t-85.5 -55.5t-56 -89t-20 -119.5q0 -53 15.5 -94t44 -69.5
t68.5 -43t89 -14.5q62 0 104 17.5t81 46.5zM248 -143q9 -3 22 -6t33 -3q22 0 40 8t18 31t-24.5 31t-58.5 9l24 80l37 -4q-2 -8 -5 -23.5t-4 -23.5q17 -1 32.5 -5.5t27.5 -12.5t19 -21t7 -31q0 -26 -10.5 -42.5t-27 -26.5t-37 -14t-39.5 -4q-20 0 -34 2.5t-25 5.5z" />
    <glyph glyph-name="Egrave" unicode="&#xc8;" horiz-adv-x="489" 
d="M39 0l65 610h368l-7 -65h-295l-22 -202h269l-6 -64h-269l-23 -214h295l-7 -65h-368zM296 672l-95 138h79l62 -138h-46z" />
    <glyph glyph-name="Eacute" unicode="&#xc9;" horiz-adv-x="489" 
d="M39 0l65 610h368l-7 -65h-295l-22 -202h269l-6 -64h-269l-23 -214h295l-7 -65h-368zM201 672l90 138h86l-123 -138h-53z" />
    <glyph glyph-name="Ecircumflex" unicode="&#xca;" horiz-adv-x="489" 
d="M39 0l65 610h368l-7 -65h-295l-22 -202h269l-6 -64h-269l-23 -214h295l-7 -65h-368zM368 672l-74 80l-90 -80h-58l123 133h53l96 -133h-50z" />
    <glyph glyph-name="Edieresis" unicode="&#xcb;" horiz-adv-x="489" 
d="M39 0l65 610h368l-7 -65h-295l-22 -202h269l-6 -64h-269l-23 -214h295l-7 -65h-368zM179 692q-23 0 -34 12t-11 30q0 24 13.5 39.5t40.5 15.5q23 0 34 -11.5t11 -30.5q0 -23 -12.5 -39t-41.5 -16zM444 746q0 -23 -13.5 -38.5t-41.5 -15.5q-23 0 -34 12t-11 30
q0 24 13 39.5t41 15.5q23 0 34.5 -12t11.5 -31z" />
    <glyph glyph-name="Igrave" unicode="&#xcc;" horiz-adv-x="222" 
d="M41 0l65 610h74l-65 -610h-74zM146 672l-95 138h79l62 -138h-46z" />
    <glyph glyph-name="Iacute" unicode="&#xcd;" horiz-adv-x="222" 
d="M41 0l65 610h74l-65 -610h-74zM115 672l90 138h86l-123 -138h-53z" />
    <glyph glyph-name="Icircumflex" unicode="&#xce;" horiz-adv-x="222" 
d="M41 0l65 610h74l-65 -610h-74zM237 672l-74 80l-90 -80h-58l123 133h53l96 -133h-50z" />
    <glyph glyph-name="Idieresis" unicode="&#xcf;" horiz-adv-x="222" 
d="M41 0l65 610h74l-65 -610h-74zM49 692q-23 0 -34 12t-11 30q0 24 13.5 39.5t40.5 15.5q23 0 34 -11.5t11 -30.5q0 -23 -12.5 -39t-41.5 -16zM314 746q0 -23 -13.5 -38.5t-41.5 -15.5q-23 0 -34 12t-11 30q0 24 13 39.5t41 15.5q23 0 34.5 -12t11.5 -31z" />
    <glyph glyph-name="Eth" unicode="&#xd0;" horiz-adv-x="620" 
d="M39 0l29 279h-58l6 56h58l30 275h204q126 0 196.5 -65.5t70.5 -194.5q0 -172 -83.5 -261t-240.5 -89h-212zM250 65q126 0 188.5 68.5t62.5 215.5q0 106 -49.5 151t-146.5 45h-135l-23 -210h144l-6 -56h-144l-22 -214h131z" />
    <glyph glyph-name="Ntilde" unicode="&#xd1;" horiz-adv-x="638" 
d="M460 0l-193 327q-29 48 -57 100t-48 97h-2q0 -42 -4 -89.5t-9 -90.5l-36 -344h-72l65 610h74l193 -327q29 -49 56.5 -100.5t47.5 -96.5h2q0 42 3.5 89.5t8.5 90.5l36 344h73l-65 -610h-73zM506 781q-2 -45 -22.5 -72t-60.5 -27q-20 0 -35 8t-28.5 18t-26.5 18t-28 8
q-20 0 -28 -14t-9 -33h-46q2 46 23 72.5t60 26.5q20 0 35 -8t28 -18t26 -18t28 -8q18 0 28 13.5t10 33.5h46z" />
    <glyph glyph-name="Ograve" unicode="&#xd2;" horiz-adv-x="714" 
d="M329 53q57 0 105.5 19t84 55t55 89t19.5 121q0 106 -57.5 163t-153.5 57q-57 0 -105 -19t-83 -55.5t-55 -89.5t-20 -121q0 -108 56.5 -163.5t153.5 -55.5zM330 -12q-60 0 -112 19.5t-90.5 56t-61 89t-22.5 119.5q0 82 26.5 147t72.5 110t107.5 69t130.5 24
q60 0 112.5 -19t91 -55t61 -89t22.5 -121q0 -85 -26 -150t-71.5 -109.5t-107.5 -67.5t-133 -23zM399 672l-95 138h79l62 -138h-46z" />
    <glyph glyph-name="Oacute" unicode="&#xd3;" horiz-adv-x="714" 
d="M329 53q57 0 105.5 19t84 55t55 89t19.5 121q0 106 -57.5 163t-153.5 57q-57 0 -105 -19t-83 -55.5t-55 -89.5t-20 -121q0 -108 56.5 -163.5t153.5 -55.5zM330 -12q-60 0 -112 19.5t-90.5 56t-61 89t-22.5 119.5q0 82 26.5 147t72.5 110t107.5 69t130.5 24
q60 0 112.5 -19t91 -55t61 -89t22.5 -121q0 -85 -26 -150t-71.5 -109.5t-107.5 -67.5t-133 -23zM342 672l90 138h86l-123 -138h-53z" />
    <glyph glyph-name="Ocircumflex" unicode="&#xd4;" horiz-adv-x="714" 
d="M329 53q57 0 105.5 19t84 55t55 89t19.5 121q0 106 -57.5 163t-153.5 57q-57 0 -105 -19t-83 -55.5t-55 -89.5t-20 -121q0 -108 56.5 -163.5t153.5 -55.5zM330 -12q-60 0 -112 19.5t-90.5 56t-61 89t-22.5 119.5q0 82 26.5 147t72.5 110t107.5 69t130.5 24
q60 0 112.5 -19t91 -55t61 -89t22.5 -121q0 -85 -26 -150t-71.5 -109.5t-107.5 -67.5t-133 -23zM481 672l-74 80l-90 -80h-58l123 133h53l96 -133h-50z" />
    <glyph glyph-name="Otilde" unicode="&#xd5;" horiz-adv-x="714" 
d="M329 53q57 0 105.5 19t84 55t55 89t19.5 121q0 106 -57.5 163t-153.5 57q-57 0 -105 -19t-83 -55.5t-55 -89.5t-20 -121q0 -108 56.5 -163.5t153.5 -55.5zM330 -12q-60 0 -112 19.5t-90.5 56t-61 89t-22.5 119.5q0 82 26.5 147t72.5 110t107.5 69t130.5 24
q60 0 112.5 -19t91 -55t61 -89t22.5 -121q0 -85 -26 -150t-71.5 -109.5t-107.5 -67.5t-133 -23zM544 781q-2 -45 -22.5 -72t-60.5 -27q-20 0 -35 8t-28.5 18t-26.5 18t-28 8q-20 0 -28 -14t-9 -33h-46q2 46 23 72.5t60 26.5q20 0 35 -8t28 -18t26 -18t28 -8q18 0 28 13.5
t10 33.5h46z" />
    <glyph glyph-name="Odieresis" unicode="&#xd6;" horiz-adv-x="714" 
d="M329 53q57 0 105.5 19t84 55t55 89t19.5 121q0 106 -57.5 163t-153.5 57q-57 0 -105 -19t-83 -55.5t-55 -89.5t-20 -121q0 -108 56.5 -163.5t153.5 -55.5zM330 -12q-60 0 -112 19.5t-90.5 56t-61 89t-22.5 119.5q0 82 26.5 147t72.5 110t107.5 69t130.5 24
q60 0 112.5 -19t91 -55t61 -89t22.5 -121q0 -85 -26 -150t-71.5 -109.5t-107.5 -67.5t-133 -23zM291 692q-23 0 -34 12t-11 30q0 24 13.5 39.5t40.5 15.5q23 0 34 -11.5t11 -30.5q0 -23 -12.5 -39t-41.5 -16zM556 746q0 -23 -13.5 -38.5t-41.5 -15.5q-23 0 -34 12t-11 30
q0 24 13 39.5t41 15.5q23 0 34.5 -12t11.5 -31z" />
    <glyph glyph-name="multiply" unicode="&#xd7;" horiz-adv-x="496" 
d="M370 113l-127 151l-160 -151l-37 46l157 150l-126 151l47 46l129 -151l158 151l39 -46l-159 -151l128 -150z" />
    <glyph glyph-name="Oslash" unicode="&#xd8;" horiz-adv-x="714" 
d="M34 -18l83 92q-35 36 -54 85.5t-19 112.5q0 82 26.5 147t72.5 110t107.5 69t130.5 24q107 0 181 -55l53 59h63l-81 -90q33 -36 52 -85.5t19 -112.5q0 -85 -26 -150t-71.5 -109.5t-107.5 -67.5t-133 -23q-51 0 -96 14t-82 40l-3 -3l-51 -57h-64zM516 517q-53 40 -134 40
q-57 0 -105 -19t-83 -55.5t-55 -89.5t-20 -121q0 -48 11.5 -84t32.5 -63zM196 91q53 -38 133 -38q57 0 105.5 19t84 55t55 89t19.5 121q0 91 -43 147z" />
    <glyph glyph-name="Ugrave" unicode="&#xd9;" horiz-adv-x="657" 
d="M538 610h73l-37 -349q-6 -64 -24 -114.5t-50.5 -86t-81.5 -54t-118 -18.5q-133 0 -191 69t-44 204l37 349h74l-36 -342q-12 -114 25.5 -164t132.5 -50q94 0 143 50t61 164zM361 672l-95 138h79l62 -138h-46z" />
    <glyph glyph-name="Uacute" unicode="&#xda;" horiz-adv-x="657" 
d="M538 610h73l-37 -349q-6 -64 -24 -114.5t-50.5 -86t-81.5 -54t-118 -18.5q-133 0 -191 69t-44 204l37 349h74l-36 -342q-12 -114 25.5 -164t132.5 -50q94 0 143 50t61 164zM323 672l90 138h86l-123 -138h-53z" />
    <glyph glyph-name="Ucircumflex" unicode="&#xdb;" horiz-adv-x="657" 
d="M538 610h73l-37 -349q-6 -64 -24 -114.5t-50.5 -86t-81.5 -54t-118 -18.5q-133 0 -191 69t-44 204l37 349h74l-36 -342q-12 -114 25.5 -164t132.5 -50q94 0 143 50t61 164zM453 672l-74 80l-90 -80h-58l123 133h53l96 -133h-50z" />
    <glyph glyph-name="Udieresis" unicode="&#xdc;" horiz-adv-x="657" 
d="M538 610h73l-37 -349q-6 -64 -24 -114.5t-50.5 -86t-81.5 -54t-118 -18.5q-133 0 -191 69t-44 204l37 349h74l-36 -342q-12 -114 25.5 -164t132.5 -50q94 0 143 50t61 164zM263 692q-23 0 -34 12t-11 30q0 24 13.5 39.5t40.5 15.5q23 0 34 -11.5t11 -30.5
q0 -23 -12.5 -39t-41.5 -16zM528 746q0 -23 -13.5 -38.5t-41.5 -15.5q-23 0 -34 12t-11 30q0 24 13 39.5t41 15.5q23 0 34.5 -12t11.5 -31z" />
    <glyph glyph-name="Yacute" unicode="&#xdd;" horiz-adv-x="579" 
d="M220 0l25 236l-194 374h73l101 -200l57 -121h4l82 121l144 200h80l-273 -374l-25 -236h-74zM285 672l90 138h86l-123 -138h-53z" />
    <glyph glyph-name="Thorn" unicode="&#xde;" horiz-adv-x="543" 
d="M270 205q39 0 68 7t49 23.5t30 43t10 66.5q0 57 -32.5 79t-98.5 22h-136l-26 -241h136zM127 141l-15 -141h-73l65 610h73l-11 -100h135q97 0 148 -40t51 -125q0 -56 -17 -95t-48 -63t-75 -35t-98 -11h-135z" />
    <glyph glyph-name="germandbls" unicode="&#xdf;" horiz-adv-x="578" 
d="M216 91q26 -17 56.5 -30.5t75.5 -13.5q48 0 72 25t24 63q0 26 -12.5 43.5t-30.5 30.5t-40 23.5t-40 23t-30.5 29.5t-12.5 43q0 27 12 45t30 30.5t39.5 23t39.5 23.5t30 30t12 44q0 37 -29.5 56.5t-83.5 19.5q-47 0 -78.5 -14t-51.5 -38t-30 -55.5t-14 -65.5l-45 -427h-72
l47 437q5 47 22 88t47 71.5t74 48t104 17.5q82 0 131 -36t49 -102q0 -34 -12 -57.5t-30.5 -40t-39.5 -28t-39.5 -21.5t-30.5 -20t-12 -24q0 -15 12.5 -26t31 -21.5t40.5 -22t40.5 -28.5t31 -41t12.5 -58q0 -35 -12.5 -62.5t-34.5 -46.5t-52 -28.5t-65 -9.5q-46 0 -81.5 13.5
t-60.5 30.5z" />
    <glyph glyph-name="agrave" unicode="&#xe0;" horiz-adv-x="492" 
d="M366 0l2 97q-7 -18 -20 -37t-32.5 -35t-45 -26.5t-56.5 -10.5q-39 0 -72 11.5t-57 36t-37 62t-13 90.5q0 128 65.5 201t194.5 73q43 0 85 -10.5t87 -27.5l-44 -424h-57zM392 380q-21 9 -42.5 15t-53.5 6q-51 0 -87 -17t-58.5 -46t-32.5 -66.5t-10 -78.5q0 -79 32.5 -112
t83.5 -33q26 0 47.5 10t39 27t32 38.5t26.5 44.5zM299 512l-95 138h79l62 -138h-46z" />
    <glyph glyph-name="aacute" unicode="&#xe1;" horiz-adv-x="492" 
d="M366 0l2 97q-7 -18 -20 -37t-32.5 -35t-45 -26.5t-56.5 -10.5q-39 0 -72 11.5t-57 36t-37 62t-13 90.5q0 128 65.5 201t194.5 73q43 0 85 -10.5t87 -27.5l-44 -424h-57zM392 380q-21 9 -42.5 15t-53.5 6q-51 0 -87 -17t-58.5 -46t-32.5 -66.5t-10 -78.5q0 -79 32.5 -112
t83.5 -33q26 0 47.5 10t39 27t32 38.5t26.5 44.5zM243 512l90 138h86l-123 -138h-53z" />
    <glyph glyph-name="acircumflex" unicode="&#xe2;" horiz-adv-x="492" 
d="M366 0l2 97q-7 -18 -20 -37t-32.5 -35t-45 -26.5t-56.5 -10.5q-39 0 -72 11.5t-57 36t-37 62t-13 90.5q0 128 65.5 201t194.5 73q43 0 85 -10.5t87 -27.5l-44 -424h-57zM392 380q-21 9 -42.5 15t-53.5 6q-51 0 -87 -17t-58.5 -46t-32.5 -66.5t-10 -78.5q0 -79 32.5 -112
t83.5 -33q26 0 47.5 10t39 27t32 38.5t26.5 44.5zM385 512l-74 80l-90 -80h-58l123 133h53l96 -133h-50z" />
    <glyph glyph-name="atilde" unicode="&#xe3;" horiz-adv-x="492" 
d="M366 0l2 97q-7 -18 -20 -37t-32.5 -35t-45 -26.5t-56.5 -10.5q-39 0 -72 11.5t-57 36t-37 62t-13 90.5q0 128 65.5 201t194.5 73q43 0 85 -10.5t87 -27.5l-44 -424h-57zM392 380q-21 9 -42.5 15t-53.5 6q-51 0 -87 -17t-58.5 -46t-32.5 -66.5t-10 -78.5q0 -79 32.5 -112
t83.5 -33q26 0 47.5 10t39 27t32 38.5t26.5 44.5zM437 621q-2 -45 -22.5 -72t-60.5 -27q-20 0 -35 8t-28.5 18t-26.5 18t-28 8q-20 0 -28 -14t-9 -33h-46q2 46 23 72.5t60 26.5q20 0 35 -8t28 -18t26 -18t28 -8q18 0 28 13.5t10 33.5h46z" />
    <glyph glyph-name="adieresis" unicode="&#xe4;" horiz-adv-x="492" 
d="M366 0l2 97q-7 -18 -20 -37t-32.5 -35t-45 -26.5t-56.5 -10.5q-39 0 -72 11.5t-57 36t-37 62t-13 90.5q0 128 65.5 201t194.5 73q43 0 85 -10.5t87 -27.5l-44 -424h-57zM392 380q-21 9 -42.5 15t-53.5 6q-51 0 -87 -17t-58.5 -46t-32.5 -66.5t-10 -78.5q0 -79 32.5 -112
t83.5 -33q26 0 47.5 10t39 27t32 38.5t26.5 44.5zM186 532q-23 0 -34 12t-11 30q0 24 13.5 39.5t40.5 15.5q23 0 34 -11.5t11 -30.5q0 -23 -12.5 -39t-41.5 -16zM451 586q0 -23 -13.5 -38.5t-41.5 -15.5q-23 0 -34 12t-11 30q0 24 13 39.5t41 15.5q23 0 34.5 -12t11.5 -31z
" />
    <glyph glyph-name="aring" unicode="&#xe5;" horiz-adv-x="492" 
d="M366 0l2 97q-7 -18 -20 -37t-32.5 -35t-45 -26.5t-56.5 -10.5q-39 0 -72 11.5t-57 36t-37 62t-13 90.5q0 128 65.5 201t194.5 73q43 0 85 -10.5t87 -27.5l-44 -424h-57zM392 380q-21 9 -42.5 15t-53.5 6q-51 0 -87 -17t-58.5 -46t-32.5 -66.5t-10 -78.5q0 -79 32.5 -112
t83.5 -33q26 0 47.5 10t39 27t32 38.5t26.5 44.5zM297 491q-42 0 -67.5 24t-25.5 60q0 42 28 70.5t76 28.5q42 0 67.5 -24t25.5 -59q0 -43 -28 -71.5t-76 -28.5zM308 635q-26 0 -42 -16t-16 -42q0 -21 12.5 -34t34.5 -13q26 0 42 16t16 42q0 21 -12.5 34t-34.5 13z" />
    <glyph glyph-name="ae" unicode="&#xe6;" horiz-adv-x="766" 
d="M666 44q-29 -27 -66 -41.5t-79 -14.5q-69 0 -112.5 22t-67.5 61q-20 -32 -64 -57.5t-106 -25.5q-66 0 -108 32.5t-42 93.5q0 81 57 122.5t151 41.5q16 0 39.5 -1.5t50.5 -7.5q11 44 34 80q-23 56 -108 56q-43 0 -84 -10.5t-74 -26.5l6 60q32 14 69.5 24t88.5 10
q48 0 87 -13t59 -43l-1 -5q32 29 73.5 45t90.5 16q78 0 116.5 -37.5t38.5 -94.5q0 -47 -28 -77t-74.5 -48t-107 -25t-126.5 -7q4 -66 36.5 -97t107.5 -31q44 0 77.5 15.5t72.5 49.5zM380 223q48 0 96 5t87 17.5t63 33t24 52.5q0 71 -92 71q-42 0 -74.5 -14t-55 -38.5
t-34.5 -57t-14 -69.5zM311 219q-39 9 -82 9q-66 0 -103 -25t-37 -79q0 -40 26.5 -59.5t68.5 -19.5q46 0 78.5 20.5t58.5 52.5q-10 34 -10 81v20z" />
    <glyph glyph-name="ccedilla" unicode="&#xe7;" horiz-adv-x="466" 
d="M394 39q-29 -24 -64 -37.5t-84 -13.5t-88 16t-66.5 45t-42 69t-14.5 88q0 53 18 100t51.5 81.5t81 54.5t107.5 20q49 0 82 -10t56 -24l-7 -63q-26 18 -56.5 28.5t-72.5 10.5t-76 -15t-59 -41.5t-38.5 -63t-13.5 -78.5q0 -35 10 -64.5t28.5 -50.5t44 -33t57.5 -12
q49 0 83.5 14t69.5 43zM179 -143q9 -3 22 -6t33 -3q22 0 40 8t18 31t-24.5 31t-58.5 9l24 80l37 -4q-2 -8 -5 -23.5t-4 -23.5q17 -1 32.5 -5.5t27.5 -12.5t19 -21t7 -31q0 -26 -10.5 -42.5t-27 -26.5t-37 -14t-39.5 -4q-20 0 -34 2.5t-25 5.5z" />
    <glyph glyph-name="egrave" unicode="&#xe8;" horiz-adv-x="508" 
d="M411 44q-29 -27 -70 -41.5t-83 -14.5q-57 0 -99 16t-69.5 44t-41 66.5t-13.5 84.5q0 55 18 103t51.5 83.5t82 56t110.5 20.5q39 0 69.5 -10t51 -28t31.5 -42t11 -52q0 -48 -30.5 -78.5t-80.5 -48t-114.5 -24t-131.5 -6.5q8 -128 157 -128q45 0 81 15.5t77 49.5zM104 223
q48 0 99.5 5t94 17.5t70 33t27.5 52.5q0 35 -24 53t-76 18q-45 0 -79.5 -14t-58.5 -38.5t-37.5 -57t-15.5 -69.5zM278 512l-95 138h79l62 -138h-46z" />
    <glyph glyph-name="eacute" unicode="&#xe9;" horiz-adv-x="508" 
d="M411 44q-29 -27 -70 -41.5t-83 -14.5q-57 0 -99 16t-69.5 44t-41 66.5t-13.5 84.5q0 55 18 103t51.5 83.5t82 56t110.5 20.5q39 0 69.5 -10t51 -28t31.5 -42t11 -52q0 -48 -30.5 -78.5t-80.5 -48t-114.5 -24t-131.5 -6.5q8 -128 157 -128q45 0 81 15.5t77 49.5zM104 223
q48 0 99.5 5t94 17.5t70 33t27.5 52.5q0 35 -24 53t-76 18q-45 0 -79.5 -14t-58.5 -38.5t-37.5 -57t-15.5 -69.5zM222 512l90 138h86l-123 -138h-53z" />
    <glyph glyph-name="ecircumflex" unicode="&#xea;" horiz-adv-x="508" 
d="M411 44q-29 -27 -70 -41.5t-83 -14.5q-57 0 -99 16t-69.5 44t-41 66.5t-13.5 84.5q0 55 18 103t51.5 83.5t82 56t110.5 20.5q39 0 69.5 -10t51 -28t31.5 -42t11 -52q0 -48 -30.5 -78.5t-80.5 -48t-114.5 -24t-131.5 -6.5q8 -128 157 -128q45 0 81 15.5t77 49.5zM104 223
q48 0 99.5 5t94 17.5t70 33t27.5 52.5q0 35 -24 53t-76 18q-45 0 -79.5 -14t-58.5 -38.5t-37.5 -57t-15.5 -69.5zM361 512l-74 80l-90 -80h-58l123 133h53l96 -133h-50z" />
    <glyph glyph-name="edieresis" unicode="&#xeb;" horiz-adv-x="508" 
d="M411 44q-29 -27 -70 -41.5t-83 -14.5q-57 0 -99 16t-69.5 44t-41 66.5t-13.5 84.5q0 55 18 103t51.5 83.5t82 56t110.5 20.5q39 0 69.5 -10t51 -28t31.5 -42t11 -52q0 -48 -30.5 -78.5t-80.5 -48t-114.5 -24t-131.5 -6.5q8 -128 157 -128q45 0 81 15.5t77 49.5zM104 223
q48 0 99.5 5t94 17.5t70 33t27.5 52.5q0 35 -24 53t-76 18q-45 0 -79.5 -14t-58.5 -38.5t-37.5 -57t-15.5 -69.5zM173 532q-23 0 -34 12t-11 30q0 24 13.5 39.5t40.5 15.5q23 0 34 -11.5t11 -30.5q0 -23 -12.5 -39t-41.5 -16zM438 586q0 -23 -13.5 -38.5t-41.5 -15.5
q-23 0 -34 12t-11 30q0 24 13 39.5t41 15.5q23 0 34.5 -12t11.5 -31z" />
    <glyph glyph-name="igrave" unicode="&#xec;" horiz-adv-x="213" 
d="M37 0l47 450h72l-47 -450h-72zM116 512l-95 138h79l62 -138h-46z" />
    <glyph glyph-name="iacute" unicode="&#xed;" horiz-adv-x="213" 
d="M37 0l47 450h72l-47 -450h-72zM96 512l90 138h86l-123 -138h-53z" />
    <glyph glyph-name="icircumflex" unicode="&#xee;" horiz-adv-x="213" 
d="M37 0l47 450h72l-47 -450h-72zM219 512l-74 80l-90 -80h-58l123 133h53l96 -133h-50z" />
    <glyph glyph-name="idieresis" unicode="&#xef;" horiz-adv-x="213" 
d="M37 0l47 450h72l-47 -450h-72zM27 532q-23 0 -34 12t-11 30q0 24 13.5 39.5t40.5 15.5q23 0 34 -11.5t11 -30.5q0 -23 -12.5 -39t-41.5 -16zM292 586q0 -23 -13.5 -38.5t-41.5 -15.5q-23 0 -34 12t-11 30q0 24 13 39.5t41 15.5q23 0 34.5 -12t11.5 -31z" />
    <glyph glyph-name="eth" unicode="&#xf0;" horiz-adv-x="539" 
d="M418 548q33 -40 52 -97.5t19 -135.5q0 -52 -13.5 -109.5t-44 -106t-79.5 -80t-119 -31.5q-43 0 -80 13.5t-64.5 39t-43.5 61.5t-16 81q0 46 16 87.5t46 73t72 49.5t95 18q55 0 98.5 -23.5t71.5 -59.5q2 26 -3 53.5t-14.5 53.5t-23 48.5t-29.5 38.5l-169 -71l5 52l121 51
q-29 19 -67.5 28.5t-83.5 10.5l6 55q64 1 117.5 -16.5t93.5 -49.5l145 61l-5 -52zM420 256q-23 45 -66.5 71t-100.5 26q-39 0 -67.5 -14t-47.5 -37t-28.5 -53.5t-9.5 -63.5q0 -35 11 -61.5t29 -43.5t42 -25.5t50 -8.5q78 0 123 55t65 155z" />
    <glyph glyph-name="ntilde" unicode="&#xf1;" horiz-adv-x="545" 
d="M375 0l29 275q7 66 -15 95.5t-62 29.5q-32 0 -59 -9.5t-50 -25t-43 -36.5t-37 -44l-30 -285h-73l47 450h61l-2 -97q16 20 36.5 39.5t46 35t55 25t62.5 9.5q69 0 106.5 -44t28.5 -134l-30 -284h-71zM442 621q-2 -45 -22.5 -72t-60.5 -27q-20 0 -35 8t-28.5 18t-26.5 18
t-28 8q-20 0 -28 -14t-9 -33h-46q2 46 23 72.5t60 26.5q20 0 35 -8t28 -18t26 -18t28 -8q18 0 28 13.5t10 33.5h46z" />
    <glyph glyph-name="ograve" unicode="&#xf2;" horiz-adv-x="557" 
d="M248 -12q-49 0 -88.5 15t-67 43t-42.5 67t-15 86q0 54 18 102t51 84t80 56.5t106 20.5q49 0 88.5 -16t67.5 -44t43 -66t15 -83q0 -57 -18.5 -105.5t-52 -84t-80.5 -55.5t-105 -20zM249 46q39 0 72.5 15t57.5 42t37.5 63.5t13.5 80.5q0 69 -38 113t-104 44q-39 0 -72 -15
t-57 -42t-37.5 -63.5t-13.5 -79.5q0 -69 37.5 -113.5t103.5 -44.5zM302 512l-95 138h79l62 -138h-46z" />
    <glyph glyph-name="oacute" unicode="&#xf3;" horiz-adv-x="557" 
d="M248 -12q-49 0 -88.5 15t-67 43t-42.5 67t-15 86q0 54 18 102t51 84t80 56.5t106 20.5q49 0 88.5 -16t67.5 -44t43 -66t15 -83q0 -57 -18.5 -105.5t-52 -84t-80.5 -55.5t-105 -20zM249 46q39 0 72.5 15t57.5 42t37.5 63.5t13.5 80.5q0 69 -38 113t-104 44q-39 0 -72 -15
t-57 -42t-37.5 -63.5t-13.5 -79.5q0 -69 37.5 -113.5t103.5 -44.5zM247 512l90 138h86l-123 -138h-53z" />
    <glyph glyph-name="ocircumflex" unicode="&#xf4;" horiz-adv-x="557" 
d="M248 -12q-49 0 -88.5 15t-67 43t-42.5 67t-15 86q0 54 18 102t51 84t80 56.5t106 20.5q49 0 88.5 -16t67.5 -44t43 -66t15 -83q0 -57 -18.5 -105.5t-52 -84t-80.5 -55.5t-105 -20zM249 46q39 0 72.5 15t57.5 42t37.5 63.5t13.5 80.5q0 69 -38 113t-104 44q-39 0 -72 -15
t-57 -42t-37.5 -63.5t-13.5 -79.5q0 -69 37.5 -113.5t103.5 -44.5zM385 512l-74 80l-90 -80h-58l123 133h53l96 -133h-50z" />
    <glyph glyph-name="otilde" unicode="&#xf5;" horiz-adv-x="557" 
d="M248 -12q-49 0 -88.5 15t-67 43t-42.5 67t-15 86q0 54 18 102t51 84t80 56.5t106 20.5q49 0 88.5 -16t67.5 -44t43 -66t15 -83q0 -57 -18.5 -105.5t-52 -84t-80.5 -55.5t-105 -20zM249 46q39 0 72.5 15t57.5 42t37.5 63.5t13.5 80.5q0 69 -38 113t-104 44q-39 0 -72 -15
t-57 -42t-37.5 -63.5t-13.5 -79.5q0 -69 37.5 -113.5t103.5 -44.5zM447 621q-2 -45 -22.5 -72t-60.5 -27q-20 0 -35 8t-28.5 18t-26.5 18t-28 8q-20 0 -28 -14t-9 -33h-46q2 46 23 72.5t60 26.5q20 0 35 -8t28 -18t26 -18t28 -8q18 0 28 13.5t10 33.5h46z" />
    <glyph glyph-name="odieresis" unicode="&#xf6;" horiz-adv-x="557" 
d="M248 -12q-49 0 -88.5 15t-67 43t-42.5 67t-15 86q0 54 18 102t51 84t80 56.5t106 20.5q49 0 88.5 -16t67.5 -44t43 -66t15 -83q0 -57 -18.5 -105.5t-52 -84t-80.5 -55.5t-105 -20zM249 46q39 0 72.5 15t57.5 42t37.5 63.5t13.5 80.5q0 69 -38 113t-104 44q-39 0 -72 -15
t-57 -42t-37.5 -63.5t-13.5 -79.5q0 -69 37.5 -113.5t103.5 -44.5zM196 532q-23 0 -34 12t-11 30q0 24 13.5 39.5t40.5 15.5q23 0 34 -11.5t11 -30.5q0 -23 -12.5 -39t-41.5 -16zM461 586q0 -23 -13.5 -38.5t-41.5 -15.5q-23 0 -34 12t-11 30q0 24 13 39.5t41 15.5
q23 0 34.5 -12t11.5 -31z" />
    <glyph glyph-name="divide" unicode="&#xf7;" horiz-adv-x="496" 
d="M220 85q-21 0 -34 14t-13 37q0 28 17.5 47t41.5 19q22 0 36.5 -13.5t14.5 -36.5q0 -29 -19 -48t-44 -19zM254 414q-20 0 -33.5 14t-13.5 37q0 29 17.5 47.5t41.5 18.5q22 0 37 -13.5t15 -36.5q0 -29 -19 -48t-45 -19zM42 279l7 61h404l-7 -61h-404z" />
    <glyph glyph-name="oslash" unicode="&#xf8;" horiz-adv-x="557" 
d="M22 -18l64 70q-51 57 -51 147q0 54 18 102t51 84t80 56.5t106 20.5q79 0 132 -41l41 45h53l-64 -71q25 -28 38.5 -64t13.5 -78q0 -57 -18.5 -105.5t-52 -84t-80.5 -55.5t-105 -20q-42 0 -75 10t-59 29l-41 -45h-51zM378 373q-17 14 -40 22.5t-50 8.5q-39 0 -72 -15
t-57 -42t-37.5 -63.5t-13.5 -79.5q0 -58 26 -99zM159 76q36 -30 90 -30q39 0 72.5 15t57.5 42t37.5 63.5t13.5 80.5q0 56 -26 97z" />
    <glyph glyph-name="ugrave" unicode="&#xf9;" horiz-adv-x="531" 
d="M370 0l1 97h-2q-14 -21 -31 -40.5t-38.5 -35t-49 -24.5t-61.5 -9q-63 0 -102 35.5t-39 107.5v13t1 14l31 292h73l-30 -282q-1 -8 -1.5 -14.5t-0.5 -12.5q0 -49 21 -70t54 -21t59.5 10t48 26.5t39 37t31.5 42.5l31 284h72l-47 -450h-60zM289 512l-95 138h79l62 -138h-46z
" />
    <glyph glyph-name="uacute" unicode="&#xfa;" horiz-adv-x="531" 
d="M370 0l1 97h-2q-14 -21 -31 -40.5t-38.5 -35t-49 -24.5t-61.5 -9q-63 0 -102 35.5t-39 107.5v13t1 14l31 292h73l-30 -282q-1 -8 -1.5 -14.5t-0.5 -12.5q0 -49 21 -70t54 -21t59.5 10t48 26.5t39 37t31.5 42.5l31 284h72l-47 -450h-60zM233 512l90 138h86l-123 -138h-53z
" />
    <glyph glyph-name="ucircumflex" unicode="&#xfb;" horiz-adv-x="531" 
d="M370 0l1 97h-2q-14 -21 -31 -40.5t-38.5 -35t-49 -24.5t-61.5 -9q-63 0 -102 35.5t-39 107.5v13t1 14l31 292h73l-30 -282q-1 -8 -1.5 -14.5t-0.5 -12.5q0 -49 21 -70t54 -21t59.5 10t48 26.5t39 37t31.5 42.5l31 284h72l-47 -450h-60zM372 512l-74 80l-90 -80h-58
l123 133h53l96 -133h-50z" />
    <glyph glyph-name="udieresis" unicode="&#xfc;" horiz-adv-x="531" 
d="M370 0l1 97h-2q-14 -21 -31 -40.5t-38.5 -35t-49 -24.5t-61.5 -9q-63 0 -102 35.5t-39 107.5v13t1 14l31 292h73l-30 -282q-1 -8 -1.5 -14.5t-0.5 -12.5q0 -49 21 -70t54 -21t59.5 10t48 26.5t39 37t31.5 42.5l31 284h72l-47 -450h-60zM184 532q-23 0 -34 12t-11 30
q0 24 13.5 39.5t40.5 15.5q23 0 34 -11.5t11 -30.5q0 -23 -12.5 -39t-41.5 -16zM449 586q0 -23 -13.5 -38.5t-41.5 -15.5q-23 0 -34 12t-11 30q0 24 13 39.5t41 15.5q23 0 34.5 -12t11.5 -31z" />
    <glyph glyph-name="yacute" unicode="&#xfd;" horiz-adv-x="476" 
d="M173 0l-140 450h69l75 -255l34 -128h2l66 143l117 240h75l-284 -555q-15 -29 -28 -51.5t-27.5 -38t-33 -23.5t-45.5 -8q-22 0 -44.5 5t-38.5 12l7 61q15 -8 34.5 -14t42.5 -6q27 0 41.5 18.5t32.5 56.5zM215 512l90 138h86l-123 -138h-53z" />
    <glyph glyph-name="thorn" unicode="&#xfe;" horiz-adv-x="536" 
d="M14 -215l92 865h73l-31 -295q13 21 30.5 40.5t39.5 34t48 23.5t56 9q41 0 71 -15.5t49.5 -42.5t29 -62.5t9.5 -75.5q0 -68 -17 -119.5t-47 -87t-71 -53.5t-89 -18q-42 0 -77.5 17t-64.5 48l-28 -268h-73zM124 117q17 -35 51 -52t79 -17q33 0 61.5 14t49.5 41.5t33 68
t12 94.5q0 64 -24 100t-78 36q-55 0 -97 -33.5t-71 -84.5z" />
    <glyph glyph-name="ydieresis" unicode="&#xff;" horiz-adv-x="476" 
d="M173 0l-140 450h69l75 -255l34 -128h2l66 143l117 240h75l-284 -555q-15 -29 -28 -51.5t-27.5 -38t-33 -23.5t-45.5 -8q-22 0 -44.5 5t-38.5 12l7 61q15 -8 34.5 -14t42.5 -6q27 0 41.5 18.5t32.5 56.5zM157 532q-23 0 -34 12t-11 30q0 24 13.5 39.5t40.5 15.5
q23 0 34 -11.5t11 -30.5q0 -23 -12.5 -39t-41.5 -16zM422 586q0 -23 -13.5 -38.5t-41.5 -15.5q-23 0 -34 12t-11 30q0 24 13 39.5t41 15.5q23 0 34.5 -12t11.5 -31z" />
    <glyph glyph-name="dotlessi" unicode="&#x131;" horiz-adv-x="213" 
d="M37 0l47 450h72l-47 -450h-72z" />
    <glyph glyph-name="Lslash" unicode="&#x141;" horiz-adv-x="453" 
d="M41 0l25 234l-58 -31l6 55l58 30l34 322h73l-30 -280l164 87l-6 -55l-164 -86l-21 -211h280l-8 -65h-353z" />
    <glyph glyph-name="lslash" unicode="&#x142;" horiz-adv-x="215" 
d="M38 0l29 268l-66 -35l6 55l66 34l33 318h72l-30 -276l66 34l-6 -55l-65 -34l-33 -309h-72z" />
    <glyph glyph-name="OE" unicode="&#x152;" horiz-adv-x="887" 
d="M436 0q-27 -7 -52 -9.5t-56 -2.5q-60 0 -111.5 20t-90 57t-60.5 90t-22 120q0 82 27 146.5t73.5 109t108.5 68t132 23.5q62 0 115 -12h369l-7 -65h-296l-21 -202h270l-7 -64h-270l-22 -214h296l-7 -65h-369zM493 541q-24 10 -51.5 13t-58.5 3q-57 0 -105 -19t-83 -55.5
t-55 -89.5t-20 -121q0 -108 56.5 -163.5t153.5 -55.5q31 0 59 3t54 11z" />
    <glyph glyph-name="oe" unicode="&#x153;" horiz-adv-x="869" 
d="M777 44q-29 -27 -70 -41.5t-83 -14.5q-81 0 -128 29.5t-67 80.5q-31 -51 -80.5 -80.5t-115.5 -29.5q-47 0 -83.5 16t-62 44.5t-39 67.5t-13.5 84q0 54 18 102t51 83.5t78.5 56t101.5 20.5q63 0 106 -28t63 -77q30 48 82 76.5t125 28.5q36 0 65.5 -10.5t50 -29t31.5 -43
t11 -52.5q0 -46 -25.5 -76t-67.5 -47.5t-95.5 -24.5t-109.5 -7h-21.5t-21.5 1q4 -66 39 -97t110 -31q45 0 81 15.5t77 49.5zM239 46q37 0 68 15t54 42t36 64t13 81q0 72 -35.5 114t-96.5 42q-37 0 -68 -15t-53.5 -42t-35.5 -63.5t-13 -79.5q0 -69 35 -113.5t96 -44.5z
M478 223q48 0 97 4.5t88.5 16.5t64.5 32t25 52q0 35 -23.5 54.5t-71.5 19.5q-45 0 -78 -14t-55 -38.5t-33.5 -57t-13.5 -69.5z" />
    <glyph glyph-name="Scaron" unicode="&#x160;" horiz-adv-x="491" 
d="M23 115q36 -29 84.5 -46.5t105.5 -17.5q25 0 50.5 4.5t45.5 16.5t32.5 33t12.5 53q0 25 -11.5 43.5t-30 33.5t-43 27.5t-51.5 26.5q-25 13 -52 27.5t-49.5 34t-37 46t-14.5 62.5q0 43 16 74t44.5 50.5t68.5 29t88 9.5q49 0 88.5 -9.5t65.5 -21.5l-7 -66q-31 14 -67.5 24
t-81.5 10q-69 0 -105 -21.5t-36 -72.5q0 -23 10.5 -40.5t28.5 -32t41.5 -27.5t49.5 -26q25 -13 53.5 -28t52 -35.5t39 -48t15.5 -65.5q0 -46 -16 -79t-45 -54t-69 -31t-89 -10q-67 0 -116.5 19t-77.5 42zM256 672l-95 133h52l74 -79l90 79h56l-124 -133h-53z" />
    <glyph glyph-name="scaron" unicode="&#x161;" horiz-adv-x="401" 
d="M17 97q28 -20 69.5 -35.5t89.5 -15.5q54 0 75 16.5t21 51.5q0 32 -26 52t-83 40q-23 8 -44.5 18.5t-38 26t-26.5 36t-10 48.5q0 57 44 92t132 35q39 0 70.5 -8.5t53.5 -19.5l-7 -59q-20 11 -48.5 20.5t-64.5 9.5q-114 0 -114 -66q0 -17 8 -29t21.5 -21.5t31.5 -17.5
t39 -16q22 -9 45 -19.5t41.5 -26.5t30.5 -39t12 -56q0 -63 -43 -94.5t-118 -31.5q-24 0 -48.5 4t-47 10.5t-41 15t-30.5 16.5zM195 512l-95 133h52l74 -79l90 79h56l-124 -133h-53z" />
    <glyph glyph-name="Ydieresis" unicode="&#x178;" horiz-adv-x="579" 
d="M220 0l25 236l-194 374h73l101 -200l57 -121h4l82 121l144 200h80l-273 -374l-25 -236h-74zM224 692q-23 0 -34 12t-11 30q0 24 13.5 39.5t40.5 15.5q23 0 34 -11.5t11 -30.5q0 -23 -12.5 -39t-41.5 -16zM489 746q0 -23 -13.5 -38.5t-41.5 -15.5q-23 0 -34 12t-11 30
q0 24 13 39.5t41 15.5q23 0 34.5 -12t11.5 -31z" />
    <glyph glyph-name="Zcaron" unicode="&#x17d;" horiz-adv-x="532" 
d="M10 0l6 57l391 491l-327 -2l7 64h415l-6 -57l-391 -490l355 1l-7 -64h-443zM277 672l-95 133h52l74 -79l90 79h56l-124 -133h-53z" />
    <glyph glyph-name="zcaron" unicode="&#x17e;" horiz-adv-x="437" 
d="M3 0l5 52l298 339l-250 -1l6 60h337l-5 -52l-299 -339l275 1l-6 -60h-361zM213 512l-95 133h52l74 -79l90 79h56l-124 -133h-53z" />
    <glyph glyph-name="florin" unicode="&#x192;" horiz-adv-x="580" 
d="M255 364h-89l14 58h88q12 43 29 81.5t43 67.5t63 46t89 17q20 0 39 -4t31 -9l-14 -61q-14 5 -29.5 8.5t-35.5 3.5q-52 0 -88 -34.5t-56 -115.5h148l-15 -58h-147l-95 -392q-20 -81 -63.5 -121.5t-115.5 -40.5q-20 0 -41 4t-35 9l15 62q11 -5 27 -9t36 -4q25 0 42.5 6.5
t30 21t21.5 37t18 55.5z" />
    <glyph glyph-name="circumflex" unicode="&#x2c6;" horiz-adv-x="310" 
d="M262 512l-74 80l-90 -80h-58l123 133h53l96 -133h-50z" />
    <glyph glyph-name="caron" unicode="&#x2c7;" horiz-adv-x="310" 
d="M149 512l-95 133h52l74 -79l90 79h56l-124 -133h-53z" />
    <glyph glyph-name="breve" unicode="&#x2d8;" horiz-adv-x="310" 
d="M321 642q-8 -72 -47.5 -103.5t-93.5 -31.5q-51 0 -86.5 26.5t-35.5 87.5v10.5t1 10.5h45q-1 -5 -1 -9v-8q0 -39 21 -55t56 -16q38 0 64 20t31 68h46z" />
    <glyph glyph-name="dotaccent" unicode="&#x2d9;" horiz-adv-x="310" 
d="M236 586q0 -24 -14.5 -40t-43.5 -16q-24 0 -35.5 12.5t-11.5 31.5q0 24 14.5 40.5t43.5 16.5q24 0 35.5 -12.5t11.5 -32.5z" />
    <glyph glyph-name="ring" unicode="&#x2da;" horiz-adv-x="310" 
d="M178 491q-42 0 -67.5 24t-25.5 60q0 42 28 70.5t76 28.5q42 0 67.5 -24t25.5 -59q0 -43 -28 -71.5t-76 -28.5zM189 635q-26 0 -42 -16t-16 -42q0 -21 12.5 -34t34.5 -13q26 0 42 16t16 42q0 21 -12.5 34t-34.5 13z" />
    <glyph glyph-name="ogonek" unicode="&#x2db;" horiz-adv-x="310" 
d="M175 -159q-14 -7 -32.5 -11t-38.5 -4q-40 0 -64.5 17t-24.5 52q0 29 15.5 50.5t36 35.5t39.5 21.5t26 9.5l29 -12q-12 -6 -27.5 -15t-28.5 -20.5t-22 -25.5t-9 -29q0 -37 45 -37q19 0 33 3t28 8z" />
    <glyph glyph-name="tilde" unicode="&#x2dc;" horiz-adv-x="310" 
d="M324 621q-2 -45 -22.5 -72t-60.5 -27q-20 0 -35 8t-28.5 18t-26.5 18t-28 8q-20 0 -28 -14t-9 -33h-46q2 46 23 72.5t60 26.5q20 0 35 -8t28 -18t26 -18t28 -8q18 0 28 13.5t10 33.5h46z" />
    <glyph glyph-name="hungarumlaut" unicode="&#x2dd;" horiz-adv-x="310" 
d="M294 512h-55l102 138h91zM110 512h-54l102 138h91z" />
    <glyph glyph-name="uni03A9" unicode="&#x3a9;" horiz-adv-x="648" 
d="M337 0l6 56q39 29 74 63.5t61.5 75t42.5 86t16 95.5q0 35 -9 68t-31 58.5t-57.5 40.5t-89.5 15q-69 0 -113.5 -21.5t-70.5 -55.5t-36 -75t-10 -81t10.5 -78t28 -72.5t41.5 -64.5t51 -54l-6 -56h-216l6 59h145q-26 19 -50.5 47t-43 62.5t-29.5 74.5t-11 83
q0 58 16.5 111.5t53 94.5t94 65.5t139.5 24.5q67 0 116.5 -19.5t81.5 -52.5t47.5 -77t15.5 -93q0 -54 -15.5 -102.5t-42 -90t-60.5 -74t-70 -54.5h137l-6 -59h-216z" />
    <glyph glyph-name="pi" unicode="&#x3c0;" horiz-adv-x="570" 
d="M492 -2q-10 -3 -25 -5t-31 -2q-30 0 -49 7.5t-30 20.5t-15.5 31t-4.5 39q0 8 0.5 17.5t1.5 18.5l27 260h-162l-63 -385h-70l62 385l-95 5l6 60h496l-7 -65h-98l-27 -254q-1 -6 -1 -11.5v-10.5q0 -61 52 -61q9 0 18.5 2t20.5 4z" />
    <glyph glyph-name="uni0E00" unicode="&#xe00;" horiz-adv-x="166" 
 />
    <glyph glyph-name="uni0E01" unicode="&#xe01;" horiz-adv-x="604" 
d="M429 0l35 324q10 94 -22.5 132.5t-118.5 38.5q-48 0 -92.5 -9t-76.5 -21v-65l-43 -400h-72l43 404v103q48 20 110.5 36t131.5 16q114 0 169 -55.5t42 -179.5l-34 -324h-72z" />
    <glyph glyph-name="uni0E02" unicode="&#xe02;" horiz-adv-x="558" 
d="M440 547h72l-35 -325q-14 -122 -76 -178t-162 -56q-97 0 -150.5 47.5t-53.5 128.5q0 41 11.5 72t29 56t37.5 45t37.5 38.5t29 37.5t11.5 41q0 41 -45 41q-23 0 -40 -4t-31 -9l7 63q30 11 72 11q54 0 78.5 -26.5t24.5 -71.5q0 -31 -11 -54.5t-27.5 -43.5t-36 -39.5
t-36 -41t-27.5 -47.5t-11 -61q0 -54 31 -87t100 -33q72 0 114 40t52 131z" />
    <glyph glyph-name="uni0E03" unicode="&#xe03;" horiz-adv-x="563" 
d="M447 547h72l-35 -325q-13 -123 -75.5 -178.5t-162.5 -55.5q-97 0 -150.5 47.5t-53.5 129.5q0 43 11 74.5t27.5 56.5t36 45.5t37.5 41.5t31.5 44.5t17.5 54.5h-2q-14 -11 -33 -19.5t-42 -8.5q-20 0 -36.5 10t-27.5 21l8 70q14 -20 30 -32t37 -12t39 10t36 26h61l-6 -58
q-4 -39 -17 -68t-29.5 -52.5t-35.5 -44t-34.5 -43t-25.5 -49t-10 -61.5q0 -54 31 -87t100 -33q72 0 114 40t52 131z" />
    <glyph glyph-name="uni0E04" unicode="&#xe04;" horiz-adv-x="627" 
d="M452 0l33 314q10 96 -28 138.5t-125 42.5q-85 0 -132.5 -42.5t-57.5 -138.5l-13 -126q12 19 28.5 39.5t37.5 37t46.5 27t54.5 10.5q15 0 30 -2.5t24 -6.5l-7 -71q-13 6 -26 9t-30 3q-29 0 -52 -9.5t-43 -26t-37 -38t-33 -45.5l-13 -115h-72l33 317q13 123 82.5 182.5
t181.5 59.5q55 0 99.5 -15t74 -46t42.5 -78t6 -110l-32 -310h-72z" />
    <glyph glyph-name="uni0E05" unicode="&#xe05;" horiz-adv-x="638" 
d="M463 0l39 371q7 63 -4 93.5t-54 30.5q-32 0 -51 -21.5t-29 -55.5h-66q-3 34 -17 55.5t-45 21.5q-42 0 -61.5 -29t-26.5 -95l-19 -183q12 19 28.5 39.5t37.5 37t46.5 27t54.5 10.5q15 0 30 -2.5t24 -6.5l-7 -71q-13 6 -26 9t-30 3q-29 0 -52 -9.5t-43 -26t-37 -38
t-33 -45.5l-13 -115h-72l40 374q9 88 48 136.5t103 48.5q42 0 70.5 -23t33.5 -58h2q15 35 48.5 58t75.5 23q67 0 96.5 -48.5t20.5 -136.5l-40 -374h-72z" />
    <glyph glyph-name="uni0E06" unicode="&#xe06;" horiz-adv-x="603" 
d="M486 547h72l-38 -361q-6 -53 -22.5 -90.5t-41.5 -61.5t-57.5 -35t-69.5 -11q-41 0 -73.5 11t-57.5 28.5t-43 39.5t-30 44l-23 -111h-61l22 203q6 51 25.5 84.5t42 62.5t42 59.5t25.5 75.5h-1q-14 -11 -33 -21t-43 -10q-18 0 -35 10t-28 21l8 70q15 -20 31 -32t36 -12
q21 0 39 10t36 26h62l-6 -58q-5 -50 -24 -83.5t-40.5 -63.5t-40.5 -61t-24 -76l-1 -10q9 -24 24.5 -49.5t38.5 -46.5t52.5 -34t67.5 -13q60 0 91.5 32.5t39.5 105.5z" />
    <glyph glyph-name="uni0E07" unicode="&#xe07;" horiz-adv-x="560" 
d="M171 0l-108 438q-9 35 -17 62t-15 47h75l118 -484h3q54 14 94.5 43t67 67t40 82.5t13.5 89.5q0 70 -31.5 110t-80.5 40q-30 0 -48 -3.5t-32 -8.5l7 64q14 4 32.5 7t38.5 3q88 0 137 -57t49 -157q0 -82 -26 -141t-67.5 -99.5t-94 -65t-104.5 -37.5h-51z" />
    <glyph glyph-name="uni0E08" unicode="&#xe08;" horiz-adv-x="553" 
d="M158 0l-66 202q-4 12 -9 24t-10 23.5t-9 20.5t-6 14h80l71 -224q39 4 78.5 23t71.5 52t52.5 80t20.5 108q0 81 -42.5 126.5t-135.5 45.5q-61 0 -111.5 -14.5t-92.5 -34.5l7 67q39 18 90.5 32t108.5 14q67 0 114 -18t77 -49.5t43.5 -74.5t13.5 -94q0 -74 -25.5 -130.5
t-66.5 -96.5t-92 -63.5t-103 -32.5h-59z" />
    <glyph glyph-name="uni0E09" unicode="&#xe09;" horiz-adv-x="583" 
d="M420 0l1 111q-12 -21 -32 -43t-46 -40t-58.5 -29t-71.5 -11q-88 0 -128.5 47t-30.5 138l6 54q3 26 2.5 45t-1.5 28h79l-13 -122q-7 -63 16 -94.5t87 -31.5q33 0 62.5 11.5t54.5 30.5t45.5 44t36.5 52l13 134q10 94 -34 132.5t-138 38.5q-57 0 -109.5 -15t-94.5 -35l8 68
q38 18 90.5 32t112.5 14q58 0 104.5 -14.5t77.5 -44t45.5 -74.5t8.5 -105l-33 -321h-60z" />
    <glyph glyph-name="uni0E0A" unicode="&#xe0a;" horiz-adv-x="568" 
d="M390 420q22 -9 42.5 -24t36 -37.5t24.5 -53t9 -69.5q0 -59 -18.5 -105.5t-52.5 -78t-80.5 -48t-103.5 -16.5q-100 0 -156 47t-56 131q0 41 11.5 72t29 55.5t37.5 44.5t37.5 38.5t29 37t11.5 40.5q0 41 -45 41q-23 0 -40 -4t-31 -9l7 63q30 11 72 11q54 0 78.5 -26.5
t24.5 -71.5q0 -31 -11 -54.5t-27.5 -43.5t-36 -38.5t-36 -40t-27.5 -47.5t-11 -61q0 -57 33.5 -89t105.5 -32q87 0 134.5 49.5t47.5 134.5q0 39 -9.5 67t-26 47t-37.5 30.5t-45 18.5l1 25l130 123h87z" />
    <glyph glyph-name="uni0E0B" unicode="&#xe0b;" horiz-adv-x="575" 
d="M397 420q22 -9 42.5 -24t36 -37.5t24.5 -53t9 -69.5q0 -59 -18.5 -105.5t-52.5 -78t-80.5 -48t-103.5 -16.5q-100 0 -156 47t-56 131q0 43 11 74.5t27.5 56t36 45t37.5 41.5t31.5 44.5t17.5 54.5h-2q-14 -11 -33 -19.5t-42 -8.5q-20 0 -36.5 10t-27.5 21l8 70
q14 -20 30 -32t37 -12t39 10t36 26h61l-6 -58q-4 -39 -17 -67.5t-29.5 -52t-35.5 -44t-34.5 -42.5t-25.5 -48.5t-10 -61.5q0 -57 33.5 -89t105.5 -32q87 0 134.5 49.5t47.5 134.5q0 39 -9.5 67t-26 47t-37.5 30.5t-45 18.5l1 25l130 123h87z" />
    <glyph glyph-name="uni0E0C" unicode="&#xe0c;" horiz-adv-x="933" 
d="M815 547h72l-40 -374q-10 -97 -54 -141t-116 -44q-38 0 -67.5 11t-52.5 28.5t-40 39.5t-29 44l-23 -111h-61l35 324q10 94 -19.5 132.5t-108.5 38.5q-39 0 -82 -9t-75 -21v-65l-28 -259q-6 -54 8.5 -72t42.5 -18q30 0 49.5 7t36.5 18l-8 -65q-31 -22 -100 -22
q-23 0 -43 7.5t-34.5 24.5t-21.5 44.5t-3 67.5l29 271v103q48 20 108.5 36t121.5 16q106 0 158.5 -55.5t39.5 -179.5l-13 -129q9 -24 23.5 -49.5t35.5 -46.5t48 -34t61 -13q54 0 79 31t32 94z" />
    <glyph glyph-name="uni0E0D" unicode="&#xe0d;" horiz-adv-x="932" 
d="M813 -86q-33 -23 -85.5 -42t-119.5 -19q-68 0 -121.5 19t-82.5 42l34 54q27 -23 69 -38t102 -15t105 15t77 38zM815 547h72l-34 -331q-10 -90 -69 -143.5t-160 -53.5q-50 0 -89 12.5t-65.5 37t-38 61.5t-5.5 86l12 108q11 94 -18.5 132.5t-108.5 38.5q-39 0 -82 -9
t-75 -21v-65l-28 -259q-6 -54 8.5 -72t42.5 -18q30 0 49.5 7t36.5 18l-8 -65q-31 -22 -100 -22q-23 0 -43 7.5t-34.5 24.5t-21.5 44.5t-3 67.5l29 271v103q48 20 108.5 36t121.5 16q106 0 158 -55.5t39 -179.5l-11 -105q-8 -67 25 -101.5t102 -34.5q70 0 109 37.5t46 98.5z
" />
    <glyph glyph-name="uni0E0E" unicode="&#xe0e;" horiz-adv-x="622" 
d="M431 -233q-60 42 -107 60.5t-92 18.5q-51 0 -77.5 -21t-29.5 -57h-62q6 66 50 100.5t116 34.5q49 0 98.5 -19.5t100.5 -53.5l53 494q5 47 1 79.5t-19 53t-41 29.5t-66 9q-45 0 -86 -9t-73 -21v-65l-30 -278q-5 -41 -15 -66.5t-26 -40.5t-37 -20.5t-47 -5.5
q-20 0 -35.5 3.5t-24.5 8.5l7 63q8 -5 20 -9t26 -4q28 0 41.5 16.5t18.5 56.5l30 280v103q48 20 109.5 36t122.5 16q109 0 158.5 -55.5t36.5 -179.5l-58 -557h-63z" />
    <glyph glyph-name="uni0E0F" unicode="&#xe0f;" horiz-adv-x="622" 
d="M418 -233q-49 0 -85.5 17.5t-43.5 59.5q-16 -34 -50 -56.5t-82 -22.5q-24 0 -48.5 5t-44.5 18l7 67q19 -14 39.5 -23t49.5 -9q40 0 64.5 20.5t38.5 63.5h61q7 -42 28.5 -60.5t58.5 -18.5h17l53 496q5 47 1 79.5t-19 53t-41 29.5t-66 9q-45 0 -86 -9t-73 -21v-65l-30 -278
q-5 -41 -15 -66.5t-26 -40.5t-37 -20.5t-47 -5.5q-20 0 -35.5 3.5t-24.5 8.5l7 63q8 -5 20 -9t26 -4q28 0 41.5 16.5t18.5 56.5l30 280v103q48 20 109.5 36t122.5 16q109 0 158.5 -55.5t36.5 -179.5l-58 -557h-76z" />
    <glyph glyph-name="uni0E10" unicode="&#xe10;" horiz-adv-x="553" 
d="M158 0l-66 202q-4 12 -9 24t-10 23.5t-9 20.5t-6 14h80l71 -224q39 4 78.5 23t71.5 52t52.5 80t20.5 108q0 81 -42.5 126.5t-135.5 45.5q-61 0 -111.5 -14.5t-92.5 -34.5l7 67q39 18 90.5 32t108.5 14q81 0 134 -29l66 64h90l-108 -96q35 -32 50.5 -77.5t15.5 -97.5
q0 -74 -25.5 -130.5t-66.5 -96.5t-92 -63.5t-103 -32.5h-59zM345 -233q-59 40 -101.5 59.5t-87.5 19.5q-51 0 -77.5 -21t-29.5 -57h-62q6 66 50 100.5t116 34.5q49 0 93 -19.5t98 -53.5l12 118h71l-19 -181h-63z" />
    <glyph glyph-name="uni0E11" unicode="&#xe11;" horiz-adv-x="622" 
d="M447 0l39 373q7 63 -10.5 93t-66.5 30q-48 0 -95 -28.5t-85 -72t-63 -95.5t-30 -98l-21 -202h-72l21 203q6 53 26.5 90.5t44 68.5t43 59.5t23.5 63.5h-2q-13 -11 -30.5 -21t-41.5 -10q-19 0 -36.5 9t-28.5 22l8 70q14 -20 29.5 -32t38.5 -12q21 0 38 10t35 26h45v-58
q30 27 70.5 48.5t94.5 21.5q75 0 111 -44.5t26 -143.5l-39 -371h-72z" />
    <glyph glyph-name="uni0E12" unicode="&#xe12;" horiz-adv-x="1016" 
d="M897 547h72l-38 -361q-12 -106 -61 -152t-122 -46q-38 0 -69.5 11t-56 28.5t-42 39.5t-28.5 44l-23 -111h-61l43 393q5 54 -6.5 78t-44.5 24q-27 0 -43.5 -22t-26.5 -55h-66q-2 16 -5 30t-10 24.5t-17.5 16.5t-27.5 6q-43 0 -71.5 -29t-46 -70.5t-25 -86.5t-7.5 -77
q0 -39 6.5 -72.5t22.5 -58t43.5 -38t69.5 -13.5q27 0 51.5 8t40.5 19l-7 -66q-16 -10 -43.5 -16t-51.5 -6q-59 0 -98 20t-63 53t-34 76t-10 90q0 67 17.5 127.5t47.5 105.5t70.5 71.5t87.5 26.5q45 0 67.5 -23t28.5 -58h2q15 35 43.5 58t74.5 23q61 0 85.5 -43t16.5 -118
l-21 -203q9 -24 24 -49.5t36.5 -46.5t50 -34t64.5 -13q58 0 86.5 32.5t36.5 105.5z" />
    <glyph glyph-name="uni0E13" unicode="&#xe13;" horiz-adv-x="934" 
d="M769 0l1 111h-2q-11 -22 -29.5 -44t-43.5 -39.5t-56 -28.5t-68 -11q-36 0 -66 10.5t-50.5 32.5t-29.5 56t-4 82l17 155q11 94 -18.5 132.5t-108.5 38.5q-39 0 -82 -9t-75 -21v-65l-28 -259q-6 -54 8.5 -72t42.5 -18q30 0 49.5 7t36.5 18l-8 -65q-31 -22 -100 -22
q-23 0 -43 7.5t-34.5 24.5t-21.5 44.5t-3 67.5l29 271v103q48 20 108.5 36t121.5 16q106 0 158 -55.5t39 -179.5l-15 -149q-6 -63 16 -93t79 -30q30 0 58 11t52 30.5t44 45t35 54.5l37 354h72l-58 -547h-60z" />
    <glyph glyph-name="uni0E14" unicode="&#xe14;" horiz-adv-x="620" 
d="M443 0l47 451q-22 17 -55.5 30.5t-87.5 13.5q-49 0 -91.5 -17.5t-74 -51.5t-50 -85t-18.5 -117q0 -37 7.5 -68.5t25 -55t46 -36.5t70.5 -13q29 0 49.5 6.5t37.5 18.5l-7 -67q-18 -10 -41.5 -15t-46.5 -5q-59 0 -99.5 19.5t-66 51.5t-37 74t-11.5 87q0 78 24.5 140.5
t67 106.5t99 67.5t120.5 23.5q75 0 127 -25.5t87 -58.5l-50 -475h-72z" />
    <glyph glyph-name="uni0E15" unicode="&#xe15;" horiz-adv-x="654" 
d="M476 0l41 393q5 52 -6 77t-41 25q-31 0 -49 -22t-27 -55h-67q-3 33 -16 55t-47 22q-32 0 -59.5 -19.5t-47.5 -54t-31.5 -82.5t-11.5 -105q0 -39 8 -72t25 -58t45 -39t68 -14q29 0 49.5 6.5t37.5 18.5l-7 -67q-18 -10 -41.5 -15t-46.5 -5q-59 0 -99 20t-65 53t-36 76.5
t-11 90.5q0 70 16.5 130.5t46 105t71 69.5t91.5 25q45 0 67 -22.5t29 -57.5h2q15 35 47 57.5t71 22.5q64 0 90 -43t18 -118l-42 -398h-72z" />
    <glyph glyph-name="uni0E16" unicode="&#xe16;" horiz-adv-x="607" 
d="M432 0l35 324q10 94 -23.5 132.5t-119.5 38.5q-48 0 -93 -9t-77 -21v-65l-28 -259q-6 -54 9 -72t46 -18q32 0 52.5 8t37.5 19l-8 -65q-32 -24 -104 -24q-24 0 -45 7.5t-36 24.5t-22 44.5t-3 67.5l29 271v103q48 20 111 36t132 16q114 0 170 -55.5t43 -179.5l-34 -324h-72
z" />
    <glyph glyph-name="uni0E17" unicode="&#xe17;" horiz-adv-x="621" 
d="M446 0l38 357q7 63 -13.5 100.5t-77.5 37.5q-72 0 -133.5 -37.5t-109.5 -94.5l-39 -363h-72l58 547h61v-111q19 22 44.5 44t57 39.5t68 28.5t77.5 11q81 0 121 -49.5t29 -155.5l-37 -354h-72z" />
    <glyph glyph-name="uni0E18" unicode="&#xe18;" horiz-adv-x="575" 
d="M64 241h70l-18 -176q27 -7 66.5 -10t78.5 -3q42 0 74.5 4.5t55 16.5t34 33t11.5 55q0 28 -12 47t-33 31.5t-49 20t-60 13.5q-42 7 -81 16t-69 24.5t-48 39.5t-18 62t17.5 65.5t50 45t78 25.5t102.5 8q54 0 106 -10t86 -24l-8 -66q-37 17 -82.5 27.5t-102.5 10.5
q-37 0 -69 -4t-55.5 -13t-37 -24.5t-13.5 -37.5q0 -21 12.5 -34t35 -21.5t54.5 -15t70 -14.5q41 -8 77 -19.5t62.5 -30.5t42 -47.5t15.5 -71.5q0 -95 -64 -135.5t-181 -40.5q-51 0 -111 7t-111 20z" />
    <glyph glyph-name="uni0E19" unicode="&#xe19;" horiz-adv-x="601" 
d="M435 0l2 111q-13 -20 -32 -41.5t-45 -39.5t-58.5 -30t-71.5 -12q-42 0 -76 11.5t-57.5 35t-34.5 59t-6 84.5l39 369h72l-38 -365q-7 -66 19 -98t92 -32q34 0 64 12t56 32t47 45t37 51l38 355h72l-58 -547h-61z" />
    <glyph glyph-name="uni0E1A" unicode="&#xe1a;" horiz-adv-x="604" 
d="M487 547h72l-33 -316q-14 -130 -79 -186.5t-176 -56.5q-51 0 -92.5 13.5t-70 42.5t-41 75t-5.5 112l33 316h72l-33 -313q-11 -98 23.5 -140t116.5 -42t125.5 42t54.5 140z" />
    <glyph glyph-name="uni0E1B" unicode="&#xe1b;" horiz-adv-x="604" 
d="M512 780h72l-58 -549q-14 -130 -79 -186.5t-176 -56.5q-51 0 -92.5 13.5t-70 42.5t-41 75t-5.5 112l33 316h72l-33 -313q-11 -98 23.5 -140t116.5 -42t125.5 42t54.5 140z" />
    <glyph glyph-name="uni0E1C" unicode="&#xe1c;" horiz-adv-x="647" 
d="M325 295l-208 -295h-79l46 436q1 15 7 36t20 40t38.5 32.5t63.5 13.5q14 0 29.5 -2.5t28.5 -6.5l-5 -63q-9 4 -20.5 7t-25.5 3q-32 0 -47 -17.5t-20 -59.5l-20 -195q-4 -35 -9.5 -73.5t-13.5 -73.5h2q10 18 19 33t19 30l21 31.5t25 36.5l104 148h57l71 -147
q10 -20 18 -36.5t14.5 -31.5t12.5 -30.5t12 -33.5h2q-1 45 1.5 78.5t6.5 68.5l34 323h71l-58 -547h-73z" />
    <glyph glyph-name="uni0E1D" unicode="&#xe1d;" horiz-adv-x="647" 
d="M325 295l-208 -295h-79l46 436q1 15 7 36t20 40t38.5 32.5t63.5 13.5q14 0 29.5 -1.5t28.5 -5.5l-5 -63q-9 3 -20.5 5.5t-25.5 2.5q-32 0 -47 -17.5t-20 -59.5l-20 -195q-4 -35 -9.5 -73.5t-13.5 -73.5h2q10 18 19 33t19 30l21 31.5t25 36.5l104 148h57l71 -147
q10 -20 18 -36.5t14.5 -31.5t12.5 -30.5t12 -33.5h2q-1 45 1.5 78.5t6.5 68.5l59 556h70l-82 -780h-73z" />
    <glyph glyph-name="uni0E1E" unicode="&#xe1e;" horiz-adv-x="705" 
d="M454 0l-67 353q-6 31 -9.5 63t-6.5 64h-2q-8 -32 -18 -63.5t-23 -63.5l-142 -353h-76l-42 431q-4 35 -10 65.5t-11 50.5h78l27 -316q3 -40 4 -85t2 -85h3q10 42 23.5 86.5t29.5 83.5l128 316h67l62 -316q8 -39 11.5 -83.5t5.5 -86.5h3q8 40 18.5 85t22.5 85l94 316h73
l-171 -547h-74z" />
    <glyph glyph-name="uni0E1F" unicode="&#xe1f;" horiz-adv-x="705" 
d="M449 0l-70 353q-6 31 -9.5 63t-5.5 64h-2q-9 -32 -19.5 -64t-22.5 -63l-140 -353h-75l-43 431q-4 35 -7 65.5t-8 50.5h78l22 -316q3 -40 3.5 -85t1.5 -85h3q10 42 23 86.5t29 83.5l128 316h66l64 -316q8 -39 11.5 -83.5t5.5 -86.5h3q9 40 19.5 85t21.5 85l149 549h68
l-220 -780h-74z" />
    <glyph glyph-name="uni0E20" unicode="&#xe20;" horiz-adv-x="622" 
d="M446 0l35 324q5 47 1 79.5t-19 53t-41 29.5t-66 9q-45 0 -86 -9t-73 -21v-65l-30 -278q-5 -41 -15 -66.5t-26 -40.5t-37 -20.5t-47 -5.5q-20 0 -35.5 3.5t-24.5 8.5l7 63q8 -5 20 -9t26 -4q28 0 41.5 16.5t18.5 56.5l30 280v103q48 20 109.5 36t122.5 16
q109 0 158.5 -55.5t36.5 -179.5l-34 -324h-72z" />
    <glyph glyph-name="uni0E21" unicode="&#xe21;" horiz-adv-x="601" 
d="M484 547h72l-38 -361q-6 -53 -22.5 -90.5t-41.5 -61.5t-57.5 -35t-69.5 -11q-41 0 -73.5 11t-57.5 28.5t-43 39.5t-30 44l-23 -111h-61l58 547h72l-37 -352q9 -25 24.5 -50.5t38.5 -46t52.5 -33.5t67.5 -13q60 0 91.5 32.5t39.5 105.5z" />
    <glyph glyph-name="uni0E22" unicode="&#xe22;" horiz-adv-x="595" 
d="M474 547h72l-50 -477q-26 -18 -51.5 -33t-55 -26t-64 -17t-78.5 -6q-45 0 -83.5 8t-67 25.5t-44.5 45.5t-16 68q0 57 28 93t68 55v2q-29 13 -47 42.5t-18 71.5q0 36 13 65t36.5 50t55.5 32.5t71 11.5q31 0 50 -5t33 -10l-7 -65q-15 7 -34 12.5t-43 5.5q-20 0 -39 -5.5
t-33.5 -17.5t-23.5 -31t-9 -46q0 -42 26.5 -56.5t86.5 -14.5h83l-6 -60h-133q-45 -19 -64.5 -51t-19.5 -71q0 -51 34.5 -71t103.5 -20q61 0 102 13.5t78 40.5z" />
    <glyph glyph-name="uni0E23" unicode="&#xe23;" horiz-adv-x="509" 
d="M36 116q35 -27 83.5 -47t111.5 -20q27 0 51.5 5t42.5 16t29 29t11 44q0 23 -12 40.5t-31.5 31t-45.5 24.5t-53 21q-30 11 -58.5 24.5t-51.5 31.5t-37 42t-14 56q0 69 54 107t160 38q51 0 96.5 -12.5t72.5 -26.5l-6 -64q-30 15 -73 28.5t-92 13.5q-72 0 -107 -21.5
t-35 -61.5q0 -20 11 -34.5t29.5 -26.5t43.5 -22.5t53 -21.5q36 -14 66.5 -29t53 -34t35 -43.5t12.5 -58.5q0 -42 -16 -72t-43.5 -49t-64.5 -27.5t-79 -8.5q-69 0 -121 18.5t-82 41.5z" />
    <glyph glyph-name="uni0E24" unicode="&#xe24;" horiz-adv-x="607" 
d="M409 -223l58 547q10 94 -23.5 132.5t-119.5 38.5q-48 0 -93 -9t-77 -21v-65l-28 -259q-6 -54 9 -72t46 -18q32 0 52.5 8t37.5 19l-8 -65q-32 -24 -104 -24q-24 0 -45 7.5t-36 24.5t-22 44.5t-3 67.5l29 271v103q48 20 111 36t132 16q114 0 170 -55.5t43 -179.5l-57 -547
h-72z" />
    <glyph glyph-name="uni0E25" unicode="&#xe25;" horiz-adv-x="583" 
d="M408 0l29 277q-83 5 -146 0.5t-105.5 -20.5t-64 -45.5t-21.5 -74.5q0 -46 25.5 -66t73.5 -20q47 0 88 23l-7 -67q-17 -8 -40 -13t-49 -5q-78 0 -121 35.5t-43 110.5q0 118 106.5 167t310.5 35q11 88 -25 123.5t-114 35.5q-69 0 -120.5 -14.5t-93.5 -36.5l7 69
q37 17 88.5 31t117.5 14q111 0 167 -53t46 -157l-37 -349h-72z" />
    <glyph glyph-name="uni0E26" unicode="&#xe26;" horiz-adv-x="622" 
d="M423 -223l58 547q5 47 1 79.5t-19 53t-41 29.5t-66 9q-45 0 -86 -9t-73 -21v-65l-30 -278q-5 -41 -15 -66.5t-26 -40.5t-37 -20.5t-47 -5.5q-20 0 -35.5 3.5t-24.5 8.5l7 63q8 -5 20 -9t26 -4q28 0 41.5 16.5t18.5 56.5l30 280v103q48 20 109.5 36t122.5 16
q109 0 158.5 -55.5t36.5 -179.5l-57 -547h-72z" />
    <glyph glyph-name="uni0E27" unicode="&#xe27;" horiz-adv-x="520" 
d="M28 110q31 -23 68.5 -40.5t91.5 -17.5q48 0 86.5 18t66 51.5t42 80.5t14.5 105q0 94 -38.5 141t-123.5 47q-52 0 -100 -15t-86 -37l7 68q33 18 78.5 33t102.5 15q115 0 173.5 -64t58.5 -188q0 -73 -19 -132t-55 -100.5t-87 -64t-114 -22.5q-57 0 -102 16t-71 37z" />
    <glyph glyph-name="uni0E28" unicode="&#xe28;" horiz-adv-x="627" 
d="M452 0l33 314q10 96 -28 138.5t-125 42.5q-85 0 -132.5 -42.5t-57.5 -138.5l-13 -126q12 19 28.5 39.5t37.5 37t46.5 27t54.5 10.5q15 0 30 -2.5t24 -6.5l-7 -71q-13 6 -26 9t-30 3q-29 0 -52 -9.5t-43 -26t-37 -38t-33 -45.5l-13 -115h-72l33 317q13 123 82.5 182.5
t181.5 59.5q75 0 124 -28l67 63h89l-110 -97q31 -32 44.5 -78t7.5 -109l-32 -310h-72z" />
    <glyph glyph-name="uni0E29" unicode="&#xe29;" horiz-adv-x="615" 
d="M532 291l-6 -60q-13 -130 -78.5 -186.5t-176.5 -56.5q-51 0 -92.5 13.5t-70 42.5t-41 75t-5.5 112l33 316h72l-33 -313q-11 -98 23.5 -140t116.5 -42t125.5 42t54.5 140l6 57h-146l6 58h146l21 198h72l-21 -198h69l-6 -58h-69z" />
    <glyph glyph-name="uni0E2A" unicode="&#xe2a;" horiz-adv-x="583" 
d="M408 0l29 277q-83 5 -146 0.5t-105.5 -20.5t-64 -45.5t-21.5 -74.5q0 -46 25.5 -66t73.5 -20q47 0 88 23l-7 -67q-17 -8 -40 -13t-49 -5q-78 0 -121 35.5t-43 110.5q0 118 106.5 167t310.5 35q11 88 -25 123.5t-114 35.5q-69 0 -120.5 -14.5t-93.5 -36.5l7 69
q37 17 88.5 31t117.5 14q69 0 123 -26l63 61h89l-106 -94q54 -56 44 -151l-37 -349h-72z" />
    <glyph glyph-name="uni0E2B" unicode="&#xe2b;" horiz-adv-x="606" 
d="M431 0l23 214q4 42 -1 70t-18.5 45.5t-33.5 24.5t-46 7q-39 0 -69.5 -7t-56 -18.5t-46.5 -26.5t-42 -32l-30 -277h-72l58 547h72l-22 -209q24 27 64 56t90.5 57t109.5 53.5t121 45.5l32 -55q-72 -16 -130.5 -39t-106.5 -48q14 2 27 3t24 1q48 0 78 -17t46.5 -44t21.5 -61
t2 -68l-23 -222h-72z" />
    <glyph glyph-name="uni0E2C" unicode="&#xe2c;" horiz-adv-x="647" 
d="M470 0l-147 297l-205 -297h-79l58 547h70l-34 -323q-4 -35 -8.5 -68.5t-14.5 -78.5h2q10 18 19 33.5t19 31t21 31.5t25 36l103 147h57l72 -148q10 -20 18 -36.5t14.5 -31.5t12.5 -30t12 -33h2q-1 35 1.5 73.5t6.5 73.5l20 195q6 53 -11 71t-54 18q-20 0 -37 -3t-31 -7
l6 57q30 13 77 13l96 99h81l-113 -110q33 -13 48 -45t10 -87l-45 -425h-72z" />
    <glyph glyph-name="uni0E2D" unicode="&#xe2d;" horiz-adv-x="595" 
d="M249 52q50 0 90 14t67.5 44.5t42.5 78.5t15 116q0 94 -46 142t-139 48q-63 0 -115 -14t-94 -34l7 70q38 17 90 29.5t117 12.5q121 0 186.5 -67.5t65.5 -186.5q0 -84 -21.5 -144.5t-59.5 -98.5t-91 -56t-117 -18q-47 0 -88 10.5t-71 32.5t-47 55t-17 78q0 17 3 36.5
t8.5 39t13 38t15.5 33.5h155l-7 -62h-100q-9 -20 -13.5 -38.5t-4.5 -44.5q0 -61 40 -87.5t115 -26.5z" />
    <glyph glyph-name="uni0E2E" unicode="&#xe2e;" horiz-adv-x="597" 
d="M249 52q50 0 90 14t67.5 44.5t42.5 78.5t15 116q0 94 -46 142t-139 48q-63 0 -115 -14t-94 -34l7 70q38 17 90 29.5t117 12.5q33 0 64 -6.5t54 -18.5l64 60h89l-103 -92q42 -31 63 -82.5t21 -114.5q0 -84 -21.5 -144.5t-59.5 -98.5t-91 -56t-117 -18q-47 0 -88 10.5
t-71 32.5t-47 55t-17 78q0 17 3 36.5t8.5 39t13 38t15.5 33.5h155l-7 -62h-100q-9 -20 -13.5 -38.5t-4.5 -44.5q0 -61 40 -87.5t115 -26.5z" />
    <glyph glyph-name="uni0E2F" unicode="&#xe2f;" horiz-adv-x="481" 
d="M295 -80l56 535q-23 -48 -65 -79t-103 -31q-58 0 -92 28.5t-34 85.5q0 30 7 52t13 36h67q-6 -11 -12 -28.5t-6 -40.5q0 -27 14 -49t50 -22q33 0 59 12t47 32t37 45t28 51h72l-66 -627h-72z" />
    <glyph glyph-name="uni0E30" unicode="&#xe30;" horiz-adv-x="367" 
d="M177 369q-51 0 -80.5 20t-29.5 59q0 16 4 30t14 34h66q-6 -13 -10 -24t-4 -22q0 -23 13 -28.5t33 -5.5h140l-7 -63h-139zM146 74q-51 0 -80.5 20t-29.5 59q0 18 5 32.5t13 31.5h66q-5 -10 -9 -20.5t-4 -25.5q0 -23 12 -28.5t32 -5.5h140l-6 -63h-139z" />
    <glyph glyph-name="uni0E31" unicode="&#xe31;" 
d="M-179 643q-52 0 -80.5 21.5t-28.5 59.5q0 30 16 65h67q-12 -30 -12 -50t10 -27t33 -7h267l-7 -62h-265z" />
    <glyph glyph-name="uni0E32" unicode="&#xe32;" horiz-adv-x="470" 
d="M292 0l37 350q8 81 -21.5 114t-92.5 33q-61 0 -105 -18t-77 -39l8 71q32 17 75.5 32.5t104.5 15.5q41 0 76.5 -11t60 -35.5t36.5 -64.5t6 -98l-37 -350h-71z" />
    <glyph glyph-name="uni0E33" unicode="&#xe33;" horiz-adv-x="471" 
d="M-75 668q27 0 44.5 17.5t17.5 45.5q0 23 -13.5 37t-36.5 14q-27 0 -45 -17.5t-18 -45.5q0 -23 14 -37t37 -14zM43 733q0 -24 -8.5 -45t-24.5 -36.5t-38 -25t-50 -9.5q-49 0 -76 29t-27 71q0 24 8.5 45t24 36.5t38 25t50.5 9.5q48 0 75.5 -29t27.5 -71zM292 0l37 350
q8 81 -21.5 114t-92.5 33q-61 0 -105 -18t-77 -39l8 71q32 17 75.5 32.5t104.5 15.5q41 0 76.5 -11t60 -35.5t36.5 -64.5t6 -98l-37 -350h-71z" />
    <glyph glyph-name="uni0E34" unicode="&#xe34;" 
d="M-477 643l7 62h441l-7 -62h-441z" />
    <glyph glyph-name="uni0E35" unicode="&#xe35;" 
d="M-477 643l7 62h374l8 110h70l-18 -172h-441z" />
    <glyph glyph-name="uni0E36" unicode="&#xe36;" 
d="M-477 643l7 62h273q-5 17 -5 29q0 20 8.5 38t22.5 31.5t33.5 21.5t40.5 8q42 0 66 -26.5t24 -61.5q0 -42 -29.5 -72t-79.5 -30h-361zM-111 686q23 0 39.5 15.5t16.5 42.5q0 22 -12.5 34t-32.5 12q-25 0 -40.5 -15.5t-15.5 -42.5q0 -21 12 -33.5t33 -12.5z" />
    <glyph glyph-name="uni0E37" unicode="&#xe37;" 
d="M-477 643l7 62h259l9 110h63l-12 -113h60l9 113h64l-18 -172h-441z" />
    <glyph glyph-name="uni0E38" unicode="&#xe38;" 
d="M-200 -269l10 96q2 21 -5 31.5t-30 10.5q-8 0 -19 -2t-21 -5l6 57q14 4 30 6.5t30 2.5q42 0 63.5 -21t16.5 -66l-12 -110h-69z" />
    <glyph glyph-name="uni0E39" unicode="&#xe39;" 
d="M-177 -80h66l-10 -94q-3 -29 -15.5 -49.5t-32 -33.5t-44 -18.5t-52.5 -5.5t-53 5.5t-43.5 18.5t-28.5 33.5t-7 49.5l4 44h-57l5 50h124l-9 -86q-4 -33 12 -45t54 -12t56 12t22 45z" />
    <glyph glyph-name="uni0E3A" unicode="&#xe3a;" 
d="M-159 -183q-22 0 -36 14t-14 37q0 27 18.5 43.5t43.5 16.5q20 0 34.5 -13.5t14.5 -36.5q0 -27 -19 -44t-42 -17z" />
    <glyph glyph-name="uni0E3F" unicode="&#xe3f;" horiz-adv-x="580" 
d="M231 -100l10 100h-202l65 610h202l11 100h52l-11 -100q76 0 120 -31t44 -101q0 -57 -24 -96.5t-63 -59.5v-2q46 -16 68 -50t22 -83q0 -53 -19 -89t-50.5 -58t-74 -31t-88.5 -9l-10 -100h-52zM296 62q28 0 56 4t49.5 17.5t35 38t13.5 65.5q0 31 -10.5 49.5t-28 27.5
t-40 11.5t-45.5 2.5h-184l-23 -216h177zM331 340q54 0 85.5 29.5t31.5 98.5q0 39 -22.5 59.5t-79.5 20.5h-176l-22 -208h183z" />
    <glyph glyph-name="uni0E40" unicode="&#xe40;" horiz-adv-x="218" 
d="M41 0l58 547h70l-58 -547h-70z" />
    <glyph glyph-name="uni0E41" unicode="&#xe41;" horiz-adv-x="416" 
d="M41 0l58 547h70l-58 -547h-70zM239 0l58 547h70l-58 -547h-70z" />
    <glyph glyph-name="uni0E42" unicode="&#xe42;" horiz-adv-x="296" 
d="M107 0l62 579q8 72 -21 121.5t-101 69.5l7 62q39 20 91 34t112 14q58 0 99 -6t71 -14l-7 -63q-34 11 -78 17t-86 6q-79 0 -139 -23q69 -24 99 -83.5t22 -138.5l-61 -575h-70z" />
    <glyph glyph-name="uni0E43" unicode="&#xe43;" horiz-adv-x="296" 
d="M107 0l54 508q4 35 28 64t51 56.5t48.5 56t21.5 62.5q0 37 -25.5 55t-65.5 18q-42 0 -88 -17.5t-81 -45.5l8 68q26 20 69 37.5t94 17.5q81 0 119 -36t38 -90q0 -44 -22 -76t-49 -60t-50.5 -56t-26.5 -62l-53 -500h-70z" />
    <glyph glyph-name="uni0E44" unicode="&#xe44;" horiz-adv-x="296" 
d="M108 0l56 536q9 88 44 158.5t96 115.5l-1 2q-37 -23 -76 -34.5t-72 -11.5q-37 0 -71.5 14.5t-53.5 31.5l7 64q28 -20 58 -34.5t73 -14.5q45 0 81 13t74 35h56l-8 -73q-38 -27 -62 -55.5t-39 -59.5t-22.5 -66t-11.5 -75l-58 -546h-70z" />
    <glyph glyph-name="uni0E45" unicode="&#xe45;" horiz-adv-x="470" 
d="M268 -223l61 573q8 81 -21.5 114t-92.5 33q-61 0 -105 -18t-77 -39l8 71q32 17 75.5 32.5t104.5 15.5q41 0 76.5 -11t60 -35.5t36.5 -64.5t6 -98l-61 -573h-71z" />
    <glyph glyph-name="uni0E46" unicode="&#xe46;" horiz-adv-x="579" 
d="M381 -213l60 573q7 60 -4 89.5t-43 39.5l-107 -74l-93 74q-31 -16 -51 -46t-20 -81q0 -48 22.5 -68t59.5 -20q24 0 41.5 5t29.5 12l-8 -68q-10 -4 -29.5 -7.5t-38.5 -3.5q-41 0 -68.5 12t-45 32.5t-25 47.5t-7.5 57q0 40 12 72t32.5 56.5t47 41.5t55.5 28l91 -78l109 78
q30 -9 52.5 -23.5t37 -36.5t20.5 -53.5t2 -75.5l-62 -583h-70z" />
    <glyph glyph-name="uni0E47" unicode="&#xe47;" 
d="M-139 643q-29 0 -50 16.5t-29 47.5q-15 -32 -40 -50t-60 -18q-48 0 -75 30t-27 81q0 69 42.5 101.5t112.5 32.5h220l-6 -56h-217q-45 0 -67.5 -19.5t-22.5 -55.5q0 -32 15.5 -46t32.5 -14q32 0 47 19.5t20 44.5h53q2 -23 16 -40t47 -17h62l-6 -57h-68z" />
    <glyph glyph-name="uni0E48" unicode="&#xe48;" 
d="M-80 869l17 161h69l-17 -161h-69z" />
    <glyph glyph-name="uni0E49" unicode="&#xe49;" 
d="M-185 869l4 42q16 4 33 10.5t30.5 15.5t22 22t8.5 30q0 29 -35 29q-11 0 -23.5 -2.5t-21.5 -6.5l5 49q25 11 62 11q35 0 54 -20t19 -49q0 -31 -14 -48.5t-33 -30.5l158 4l-6 -56h-263z" />
    <glyph glyph-name="uni0E4A" unicode="&#xe4a;" 
d="M-40 869l5 51q2 22 -1 35t-19 13q-17 0 -26.5 -13.5t-14.5 -31.5h-44q-2 18 -8.5 31.5t-23.5 13.5t-23 -13t-8 -35l-5 -51h-61l6 56q5 43 25.5 71.5t60.5 28.5q52 0 63 -53q23 53 75 53q42 0 58 -28t5 -76l72 2l-6 -54h-130z" />
    <glyph glyph-name="uni0E4B" unicode="&#xe4b;" 
d="M-10 959l-7 -90h-61l11 90l-90 -2l6 56l90 -2l7 91h61l-11 -91l90 2l-6 -56z" />
    <glyph glyph-name="uni0E4C" unicode="&#xe4c;" 
d="M-85 860q-26 0 -38.5 -9.5t-12.5 -36.5q0 -7 1 -15.5t4 -18.5h-65q-8 24 -8 40q0 45 24.5 71.5t84.5 26.5h145l-6 -58h-129z" />
    <glyph glyph-name="uni0E4D" unicode="&#xe4d;" 
d="M-75 668q27 0 44.5 17.5t17.5 45.5q0 23 -13.5 37t-36.5 14q-27 0 -45 -17.5t-18 -45.5q0 -23 14 -37t37 -14zM43 733q0 -24 -8.5 -45t-24.5 -36.5t-38 -25t-50 -9.5q-49 0 -76 29t-27 71q0 24 8.5 45t24 36.5t38 25t50.5 9.5q48 0 75.5 -29t27.5 -71z" />
    <glyph glyph-name="uni0E4E" unicode="&#xe4e;" horiz-adv-x="1170" 
d="M1070 555v-555l-485 -276l-485 276v555l485 277zM614 779l310 -479l93 248zM153 548l93 -248l310 479zM129 18l98 251v2l-98 261v-514zM556 -230l-310 469l-93 -239zM261 269l324 -492l324 492l-324 501zM1018 0l-94 239l-310 -469zM1041 532l-98 -263l98 -251v514z
M415 300q2 -2 5 -4t4 -4q0 -5 1 -8q-20 -23 -36.5 -29t-25.5 -6q18 12 32.5 28.5t19.5 22.5zM450 199q8 0 10 -14t-1 -27q-5 -14 -14 -19.5t-21 -5.5q-15 1 -22.5 10.5t-10.5 21.5t-4 22.5t-2 15.5q-2 8 -2 19t-1 23h1q8 3 18 9.5t21 17.5q4 -19 2.5 -38t-4.5 -33
q-1 -4 -1.5 -11t0.5 -13.5t2.5 -12.5t5.5 -7q7 -2 9 3t3 8q1 8 -1.5 10.5t-4.5 6.5q-2 5 5.5 9.5t11.5 4.5zM558 212q1 1 1.5 4t2.5 6q1 4 3 8q-1 -2 -0.5 -8.5t0.5 -14.5q0 -9 1 -19q-6 1 -11 6q-3 2 -4 3q1 2 3 5q1 2 2 5t2 5zM765 173q2 5 5 8t5 9v-6v-6t-2 -8
q-3 -8 -5 -22t-2 -22q2 -8 2.5 -14t-4.5 -8q1 1 1 4q0 2 -2 12q-5 11 -3 30q1 4 2 11t3 12zM553 125q4 -4 9 -2q3 0 6 2q0 -8 1.5 -13.5t-0.5 -10.5q-1 3 -4 7t-9 2q-3 0 -7 -8q-2 8 -8 8q-5 0 -6.5 -3t-3.5 -6l-4 6l-6 3q-3 0 -5.5 -3.5t-4.5 -5.5q-2 7 2 22q1 3 0.5 8.5
t-0.5 10.5q-1 6 -1 13q14 -6 25 -16t16 -14zM576 168q2 2 10 2q1 -4 -2 -13q-8 6 -8 11zM568 155q2 2 6 1t7 -3l-2 -4q-1 -2 -2 -3t-2 -3q-7 5 -7 12zM562 141q2 1 10 -3q-5 -5 -9 -6q-2 2 -3.5 5t0.5 3zM558 106q5 2 7 -6q-2 -4 -13 -6q2 12 6 12zM541 105q2 0 3 -3.5
t3 -7.5h-6h-8q0 4 2.5 7.5t5.5 3.5zM524 104q4 -4 4 -9q-10 2 -13 4q6 8 7 7zM748 106q3 1 7 -6q-2 -2 -5 -3.5t-9 -2.5q3 12 7 12zM730 105q2 0 4 -3.5t3 -7.5h-6h-8q1 4 3 7.5t4 3.5zM713 105q3 -3 5 -10q-5 2 -8.5 2.5t-5.5 1.5q3 8 6 7zM798 241q1 -3 3 -7q1 -3 2 -7.5
t1 -9.5t-1 -9.5t-2 -8.5l-2 -8q-3 4 -6 10q-2 5 -3.5 14t-0.5 23q1 15 0 28q-1 11 -2.5 23t-4.5 20q-2 -13 -5 -24l-4 -20t-4 -15q-3 -10 -1.5 -24t3.5 -21q2 -8 -3 -13t-9 -16q-3 -8 -4.5 -17t-1.5 -14q0 -7 1 -15.5t5 -17.5q2 -8 0 -10q-2 3 -4.5 6t-7.5 2q-4 0 -8 -8
q-2 8 -9 8q-5 0 -10 -7l-2 6l-7 2q-4 0 -6.5 -3t-4.5 -6q-2 4 -1 9q4 17 7.5 38t-2.5 34q-3 6 -10 14.5t-14.5 19t-13 22t-6.5 25.5q-1 -1 -2 -4q-2 -6 2 -17q-12 -2 -25 -1q-12 1 -27.5 3t-33.5 8q0 2 1 5q1 2 1.5 5.5t2.5 8.5q-2 -4 -6 -8q-3 -4 -6.5 -10.5t-5.5 -15.5
q-2 -6 -8 -19.5t-8 -18.5t7 -11.5t14 -8.5l8 -2t7 -3q-6 0 -9 -5v-2q0 -3 4 -9q-8 2 -10 -2l-1 -4q0 -5 3 -8h-7l-5 -2q-2 -7 2 -12q-2 2 -5 3.5t-7 4.5q-5 4 -11.5 9t-13 9.5t-12 7.5t-7.5 3q-4 2 -10 8.5t-5 23.5q1 8 3 22t3.5 28.5t3.5 27t3 17.5q-2 0 -3 -2
q-1 -1 -5 -11l-16 25q5 3 8.5 8t5.5 9l6 -9l4 -6l4 3q0 1 4.5 6.5t6.5 11.5q5 12 7 27l1.5 7.5t1.5 4.5l3 7l5 12.5t4.5 16t0 17t-8.5 16.5q-8 7 -15.5 9.5t-14.5 2.5q-8 0 -15 -2l5 -0.5t11 -2t12.5 -4t10.5 -7.5q8 -9 8 -22q0 -10 -3.5 -18t-5.5 -16l-3 -7q-1 -2 -1.5 -5
t-2.5 -8q-2 -12 -5 -26q-2 -2 -4.5 -6t-4.5 -7q-3 3 -7 11q-2 4 -4 7l-3 -5q-2 -3 -6.5 -10.5t-9.5 -10.5q-7 -3 -12 -5t-9 -6q-2 -2 -4.5 -5t-4.5 -11q-1 -3 -2.5 -4.5l-3.5 -3.5t-4 -2v2q0 1 -0.5 2.5t-0.5 3.5q-1 2 -0.5 5t0.5 5v4l-16 13l-3 -2q-4 -6 -9 -12
q-5 -5 -11 -12t-13 -14q-1 2 -1 3.5t-1 3.5q-1 -2 -5 -4q-3 -2 -8 -3.5t-13 -1.5q15 11 21 19q3 4 3 6q-1 9 -1 17.5v15.5q0 8 1 16q-1 7 -1.5 22t1.5 23t4.5 15.5t7.5 23.5q6 14 15 18q4 2 10 2q5 6 10 11t10.5 8.5t12.5 4.5q21 2 36.5 -1t28.5 -1q6 1 16 3t21.5 4t22.5 3
t20 0q8 -1 25 -4.5t36.5 -9t37.5 -12.5t29 -15q10 -9 22.5 -19.5t23.5 -24.5t19.5 -31.5t10.5 -40.5t3 -38t2 -24v-17zM450 383q0 2 1.5 3.5l3.5 3.5t4 5q-2 1 -5 1q-6 0 -10 -5q-4 -3 -4 -11q0 -4 1 -7l3 3q2 2 3 3.5t3 3.5zM521 423q-4 6 -8 8t-9 3t-10 0q18 -5 22 -16
q2 -10 2 -17q0 -5 -1 -10q3 5 5 10t2 10.5t-3 11.5z" />
    <glyph glyph-name="uni0E4F" unicode="&#xe4f;" horiz-adv-x="551" 
d="M251 18q-42 0 -79 15.5t-65 43t-44.5 65.5t-16.5 84q0 54 19.5 100t52 79.5t75.5 52t91 18.5q42 0 79.5 -15t65.5 -42t44.5 -65t16.5 -84q0 -54 -19.5 -100.5t-52 -80t-76 -52.5t-91.5 -19zM256 60q39 0 74 16.5t61 44t41 64.5t15 79q0 35 -13.5 66t-36 54t-53 36.5
t-64.5 13.5q-39 0 -73.5 -16.5t-61 -44t-41.5 -64.5t-15 -78q0 -36 13.5 -67t36.5 -54t53 -36.5t64 -13.5zM257 154q20 0 38 8t31.5 22t21.5 32.5t8 39.5q0 35 -22.5 59.5t-56.5 24.5q-19 0 -36.5 -8t-31 -22t-21.5 -32.5t-8 -39.5q0 -35 21.5 -59.5t55.5 -24.5zM260 116
q-24 0 -45 9.5t-37 25.5t-25.5 38t-9.5 47q0 28 10.5 54t29 45.5t42.5 31t51 11.5q24 0 45.5 -9.5t37 -25.5t25 -38t9.5 -46q0 -29 -10.5 -55t-28.5 -45.5t-42.5 -31t-51.5 -11.5z" />
    <glyph glyph-name="uni0E50" unicode="&#xe50;" horiz-adv-x="585" 
d="M264 -12q-52 0 -95 17t-74 47.5t-48 72t-17 91.5q0 59 20.5 109t57 87t87 57.5t110.5 20.5q52 0 94.5 -17t73.5 -47.5t48 -72.5t17 -91q0 -59 -20 -109t-56 -87t-86.5 -57.5t-111.5 -20.5zM265 49q47 0 84.5 15.5t64 44t40.5 67.5t14 86q0 76 -42.5 121.5t-120.5 45.5
q-47 0 -84.5 -15.5t-64 -44t-41 -67.5t-14.5 -86q0 -75 43 -121t121 -46z" />
    <glyph glyph-name="uni0E51" unicode="&#xe51;" horiz-adv-x="583" 
d="M199 -59l6 59h26q49 0 92 15.5t74.5 47t49.5 79t18 111.5q0 90 -45 133t-123 43q-94 0 -145 -47.5t-51 -123.5q0 -57 29 -83.5t74 -26.5q29 0 51 7t44 19l-7 -61q-17 -12 -44.5 -18.5t-52.5 -6.5q-72 0 -117 43.5t-45 121.5q0 54 19 98t53.5 74.5t83 47.5t107.5 17
q51 0 94.5 -14t75.5 -43t50.5 -72.5t18.5 -101.5q0 -75 -22.5 -134.5t-62 -100t-94 -62t-117.5 -21.5h-40z" />
    <glyph glyph-name="uni0E52" unicode="&#xe52;" horiz-adv-x="663" 
d="M539 335q7 73 -39 90l-85 -63l-79 63q-26 -10 -46.5 -39t-20.5 -75q0 -36 18 -56.5t58 -20.5q19 0 41 5l-6 -52q-24 -6 -50 -6q-61 0 -94 31t-33 91q0 40 10.5 70.5t29.5 53t44.5 37.5t54.5 24l75 -65l87 66q60 -14 84 -55t18 -95l-33 -315q-32 -9 -60.5 -16t-58 -11.5
t-61.5 -6.5t-71 -2q-70 0 -124 8.5t-89.5 28.5t-52 52.5t-11.5 79.5l46 433h69l-46 -435q-3 -31 10 -51.5t40 -32.5t67.5 -17t91.5 -5q55 0 98 4t90 14z" />
    <glyph glyph-name="uni0E53" unicode="&#xe53;" horiz-adv-x="617" 
d="M457 0l33 312q7 66 -9.5 91.5t-56.5 25.5q-36 0 -57.5 -29.5t-26.5 -77.5l-12 -113h-59l10 104q5 52 -9.5 84t-53.5 32q-37 0 -59 -23t-29 -83l-19 -177q-3 -27 1 -45.5t13 -29.5t22 -15.5t28 -4.5q32 0 52.5 8t37.5 19l-8 -65q-15 -11 -39 -17.5t-49 -6.5q-30 0 -55 9
t-42.5 27.5t-25.5 47.5t-4 69l19 186q4 43 17.5 74t33.5 50.5t44.5 28.5t51.5 9q45 0 74 -24t35 -62q18 38 51.5 62t79.5 24q27 0 50 -9t39 -28.5t23 -50.5t3 -74l-35 -328h-69z" />
    <glyph glyph-name="uni0E54" unicode="&#xe54;" horiz-adv-x="552" 
d="M438 0q-46 0 -81.5 13t-55.5 38q-21 -20 -52 -35.5t-63 -15.5h-45q-21 14 -41 34.5t-35.5 47t-25 60t-9.5 72.5q0 58 17 107.5t51.5 85t86 55.5t119.5 20h72q30 0 51.5 2t36 9t22.5 21t11 39l4 37h57q3 -15 3 -35q0 -40 -14 -66t-38.5 -41.5t-57.5 -21.5t-72 -6h-70
q-107 0 -158 -54.5t-51 -147.5q0 -49 19 -91t55 -66h20q24 0 44.5 8.5t39.5 22.5q-10 24 -10 53q0 34 11.5 60t31 42.5t46.5 25t58 8.5q24 0 46 -5l-6 -52h-31q-42 0 -66.5 -21t-24.5 -64q0 -40 26 -60.5t86 -20.5h49l-6 -58h-50z" />
    <glyph glyph-name="uni0E55" unicode="&#xe55;" horiz-adv-x="558" 
d="M444 0q-96 0 -138 51q-21 -20 -52 -35.5t-63 -15.5h-50q-21 14 -41 34.5t-35.5 47t-25 60t-9.5 72.5q0 51 13 95t39 78.5t65 57t92 30.5q-7 18 -7 37q0 17 6 35.5t19.5 33.5t35 24.5t52.5 9.5q16 0 32 -6t28.5 -17t20 -27t7.5 -36q0 -14 -4 -26t-9 -20q38 1 57.5 14.5
t24.5 55.5l4 37h58q1 -8 1.5 -16.5t0.5 -18.5q0 -39 -13.5 -65t-37 -41.5t-56 -22t-70.5 -6.5h-87q-52 0 -90 -15t-63 -41.5t-37 -63.5t-12 -82q0 -49 19 -91t55 -66h26q23 0 44 8.5t40 22.5q-5 11 -7.5 24t-2.5 26q0 36 11.5 62t31 43t46.5 25.5t58 8.5q12 0 23.5 -1.5
t22.5 -3.5l-6 -52h-32q-42 0 -66 -20.5t-24 -65.5q0 -39 26 -59.5t86 -20.5h48l-6 -58h-49zM327 471q22 0 37 14t15 40q0 20 -11 31t-30 11q-22 0 -37 -14t-15 -39q0 -20 11.5 -31.5t29.5 -11.5z" />
    <glyph glyph-name="uni0E56" unicode="&#xe56;" horiz-adv-x="579" 
d="M131 231q-9 -16 -13.5 -36.5t-4.5 -35.5q0 -48 36.5 -79t109.5 -31q91 0 146.5 55.5t55.5 160.5q0 35 -9.5 65t-27.5 52t-45 34.5t-62 12.5q-60 0 -102.5 -21.5t-71.5 -56.5h-58q-3 69 -18 128t-28 111h75l27 -174q32 32 79 53t107 21q44 0 82 -16t65.5 -45.5t43 -70.5
t15.5 -90q0 -67 -19.5 -119t-55.5 -88t-87 -54.5t-114 -18.5q-47 0 -86.5 10.5t-68.5 31.5t-45 52.5t-16 72.5q0 17 4.5 39t12.5 37h73z" />
    <glyph glyph-name="uni0E57" unicode="&#xe57;" horiz-adv-x="733" 
d="M634 610h70l-50 -467q-5 -45 -18.5 -74.5t-33.5 -47t-45.5 -25t-54.5 -7.5q-35 0 -61.5 5t-52.5 16l35 328q5 49 -7 70t-41 21q-61 0 -70 -84l-6 -61h-58l6 61q9 84 -50 84q-29 0 -46 -21t-22 -70l-21 -192q-3 -27 1 -45.5t13 -29.5t22 -15.5t28 -4.5q32 0 52.5 8
t37.5 19l-8 -65q-15 -11 -39 -17.5t-49 -6.5q-30 0 -55 9t-42.5 27.5t-25.5 47.5t-4 69l21 201q8 78 43.5 112.5t86.5 34.5q35 0 59.5 -19.5t33.5 -49.5q14 30 42.5 49.5t64.5 19.5q49 0 79 -35t22 -112l-31 -290q10 -3 19 -4.5t23 -1.5q44 0 60.5 22.5t21.5 67.5z" />
    <glyph glyph-name="uni0E58" unicode="&#xe58;" horiz-adv-x="617" 
d="M136 0q-20 14 -39 34.5t-34 47t-24 59.5t-9 72q0 59 17.5 108.5t52 85t86.5 55.5t120 20h116q45 0 66 14t25 57l4 37h57q3 -18 3 -37q0 -61 -34.5 -97t-120.5 -36h-120q-52 0 -90 -15t-63 -41.5t-37 -64t-12 -82.5q0 -49 18.5 -90.5t53.5 -65.5h10q37 0 65 32t36 83h57
q0 -25 4 -47.5t13.5 -39.5t25.5 -27t40 -10q33 0 56 26t23 92q0 42 -16 59.5t-47 17.5q-10 0 -18.5 -1.5t-17.5 -3.5l6 56q9 2 21 3t22 1q57 0 84 -31.5t27 -94.5q0 -38 -8 -71.5t-25 -58.5t-44 -39.5t-64 -14.5q-54 0 -84 29.5t-33 80.5q-20 -51 -55.5 -76.5t-77.5 -25.5
h-36z" />
    <glyph glyph-name="uni0E59" unicode="&#xe59;" horiz-adv-x="591" 
d="M411 0l-134 355q-12 32 -26.5 51.5t-46.5 19.5q-29 0 -48.5 -20.5t-25.5 -74.5l-19 -178q-6 -58 13.5 -81.5t61.5 -23.5q20 0 38.5 3.5t32.5 8.5l-6 -56q-16 -6 -37.5 -10.5t-44.5 -4.5q-78 0 -108 42.5t-22 118.5l19 185q4 42 17.5 71t33 48t44 27.5t50.5 8.5
q42 0 67 -15.5t43 -44.5q17 23 43 41.5t63 18.5q24 0 39.5 -8.5t23.5 -23t10.5 -33t0.5 -39.5l-4 -36q26 0 36.5 11.5t14.5 44.5l17 164h61l-17 -160q-6 -60 -34.5 -85.5t-85.5 -25.5h-48l7 70q3 27 -3.5 45.5t-30.5 18.5q-25 0 -42.5 -15t-28.5 -32l144 -386h-68z" />
    <glyph glyph-name="uni0E5B" unicode="&#xe5b;" horiz-adv-x="1126" 
d="M1075 176q-22 0 -45.5 7t-44 22t-35.5 37.5t-20 53.5l-49 -173h-56l-60 201l-64 -226h-53l-63 228q-9 -47 -33 -99t-63 -96t-94 -73t-126 -29q-44 0 -84 13.5t-70 41.5t-47.5 70.5t-17.5 101.5q0 71 19.5 122.5t51 84.5t72 48.5t83.5 15.5q32 0 60.5 -9t50.5 -27
t34.5 -45.5t12.5 -63.5q0 -78 -46 -124.5t-133 -46.5l7 59q18 0 37 5.5t34.5 18.5t25 33t9.5 50q0 42 -26 65.5t-72 23.5q-33 0 -61 -11.5t-48 -36.5t-31.5 -64t-11.5 -94q0 -88 44.5 -128.5t113.5 -40.5q62 0 112 30t84.5 79t53 111.5t18.5 128.5v10h64l69 -254l62 217h55
l59 -205l51 177h53v-5q4 -48 18 -77.5t32 -45.5t38 -21.5t36 -5.5z" />
    <glyph glyph-name="endash" unicode="&#x2013;" horiz-adv-x="449" 
d="M29 274l7 61h383l-7 -61h-383z" />
    <glyph glyph-name="emdash" unicode="&#x2014;" horiz-adv-x="747" 
d="M29 274l7 61h680l-7 -61h-680z" />
    <glyph glyph-name="quoteleft" unicode="&#x2018;" horiz-adv-x="215" 
d="M200 645q-9 -9 -19 -22t-19 -28.5t-15.5 -31.5t-7.5 -31q17 1 30 -12.5t13 -34.5q0 -23 -14.5 -39.5t-40.5 -16.5t-39.5 16.5t-13.5 39.5q0 28 10 54t24.5 48t31 40t29.5 30z" />
    <glyph glyph-name="quoteright" unicode="&#x2019;" horiz-adv-x="215" 
d="M64 442q9 9 19 22t19 28.5t15.5 31.5t8.5 31q-18 -2 -31 12t-13 35q0 24 14.5 39.5t39.5 15.5q26 0 40.5 -16.5t14.5 -39.5q0 -27 -10 -53t-25 -48t-32 -40.5t-30 -30.5z" />
    <glyph glyph-name="quotesinglbase" unicode="&#x201a;" horiz-adv-x="215" 
d="M5 -114q9 9 19 22t19 28.5t15.5 31.5t8.5 31q-18 -2 -31 12t-13 35q0 24 14.5 40t39.5 16q26 0 40.5 -17t14.5 -40q0 -27 -10 -53t-25 -48t-32 -40.5t-30 -30.5z" />
    <glyph glyph-name="quotedblleft" unicode="&#x201c;" horiz-adv-x="364" 
d="M349 645q-9 -9 -19 -22t-19 -28.5t-15.5 -31.5t-7.5 -31q17 1 30.5 -12.5t13.5 -34.5q0 -23 -14.5 -39.5t-40.5 -16.5t-40 16.5t-14 39.5q0 28 10 54t24.5 48t31 40t29.5 30zM200 645q-9 -9 -19 -22t-19 -28.5t-15.5 -31.5t-7.5 -31q17 1 30 -12.5t13 -34.5
q0 -23 -14 -39.5t-40 -16.5t-40 16.5t-14 39.5q0 28 10 54t24.5 48t31 40t29.5 30z" />
    <glyph glyph-name="quotedblright" unicode="&#x201d;" horiz-adv-x="364" 
d="M64 442q9 9 19 22t19 28.5t15.5 31.5t8.5 31q-18 -2 -31 12t-13 35q0 24 14 39.5t40 15.5t40.5 -16.5t14.5 -39.5q0 -27 -10.5 -53t-25.5 -48.5t-32 -40.5t-30 -30zM213 442q9 9 19 22t19 28.5t15.5 31.5t8.5 31q-18 -2 -31 12t-13 35q0 24 14 39.5t40 15.5t40.5 -16.5
t14.5 -39.5q0 -27 -10 -53t-25 -48t-32 -40.5t-30 -30.5z" />
    <glyph glyph-name="quotedblbase" unicode="&#x201e;" horiz-adv-x="359" 
d="M5 -114q9 9 19 22t19 28.5t15.5 31.5t8.5 31q-18 -2 -31 12t-13 35q0 24 14.5 40t39.5 16q26 0 40.5 -17t14.5 -40q0 -27 -10 -53t-25 -48t-32 -40.5t-30 -30.5zM154 -114q9 9 19 22t19 28.5t15.5 31.5t8.5 31q-18 -2 -31 12t-13 35q0 23 14 39.5t40 16.5q27 0 41 -17
t14 -40q0 -27 -10.5 -53t-25.5 -48.5t-32 -40.5t-30 -30z" />
    <glyph glyph-name="dagger" unicode="&#x2020;" horiz-adv-x="465" 
d="M143 -260l67 642h-166l6 60h166l23 208h61l-23 -208h166l-6 -60h-166l-67 -642h-61z" />
    <glyph glyph-name="daggerdbl" unicode="&#x2021;" horiz-adv-x="465" 
d="M143 -260l21 207h-166l7 61h166l39 374h-166l7 60h166l22 208h61l-22 -208h166l-7 -60h-166l-39 -374h166l-7 -61h-166l-21 -207h-61z" />
    <glyph glyph-name="bullet" unicode="&#x2022;" horiz-adv-x="342" 
d="M57 301q0 25 9.5 49t26.5 43t40 30t51 11q24 0 43 -9t32 -24t20 -34.5t7 -40.5q0 -25 -9.5 -48.5t-26.5 -41.5t-40.5 -29t-50.5 -11q-24 0 -42.5 8.5t-32 23t-20.5 33.5t-7 40z" />
    <glyph glyph-name="ellipsis" unicode="&#x2026;" horiz-adv-x="645" 
d="M74 -8q-22 0 -36.5 15t-14.5 37q0 26 17 43.5t42 17.5q22 0 37 -15t15 -38q0 -26 -18 -43t-42 -17zM289 -8q-22 0 -36.5 15t-14.5 37q0 26 17 43.5t42 17.5q22 0 37 -15t15 -38q0 -26 -18 -43t-42 -17zM504 -8q-22 0 -36.5 15t-14.5 37q0 26 17 43.5t42 17.5q22 0 37 -15
t15 -38q0 -26 -18 -43t-42 -17z" />
    <glyph glyph-name="perthousand" unicode="&#x2030;" horiz-adv-x="976" 
d="M54 0l490 610h57l-489 -610h-58zM181 329q-58 0 -89.5 37t-31.5 92q0 35 9.5 65t28 51.5t45 34t61.5 12.5q58 0 89.5 -36.5t31.5 -93.5q0 -35 -9.5 -65t-28 -51.5t-45.5 -33.5t-61 -12zM182 372q45 0 69.5 32.5t24.5 86.5q0 42 -18.5 64.5t-53.5 22.5q-45 0 -70 -32
t-25 -86q0 -42 19 -65t54 -23zM451 -11q-58 0 -89.5 37t-31.5 92q0 35 9.5 65t28 51.5t45 34t61.5 12.5q58 0 89.5 -36.5t31.5 -93.5q0 -35 -9.5 -65t-28 -51.5t-45.5 -33.5t-61 -12zM452 32q45 0 69.5 32.5t24.5 86.5q0 42 -18.5 64.5t-53.5 22.5q-45 0 -70 -32t-25 -86
q0 -42 19 -65t54 -23zM777 -11q-58 0 -89.5 37t-31.5 92q0 35 9.5 65t28 51.5t45 34t61.5 12.5q58 0 89.5 -36.5t31.5 -93.5q0 -35 -9.5 -65t-28 -51.5t-45.5 -33.5t-61 -12zM778 32q45 0 69.5 32.5t24.5 86.5q0 42 -18.5 64.5t-53.5 22.5q-45 0 -70 -32t-25 -86
q0 -42 19 -65t54 -23z" />
    <glyph glyph-name="guilsinglleft" unicode="&#x2039;" horiz-adv-x="266" 
d="M129 62l-109 209l154 212h70l-156 -211l111 -210h-70z" />
    <glyph glyph-name="guilsinglright" unicode="&#x203a;" horiz-adv-x="266" 
d="M15 62l155 210l-111 211h69l109 -212l-153 -209h-69z" />
    <glyph glyph-name="fraction" unicode="&#x2044;" horiz-adv-x="236" 
d="M-160 0l499 610h56l-497 -610h-58z" />
    <glyph glyph-name="Euro" unicode="&#x20ac;" horiz-adv-x="580" 
d="M518 45q-26 -23 -62.5 -41.5t-92.5 -18.5q-48 0 -89 15.5t-72 45t-50.5 72.5t-24.5 97h-81l6 49h75q0 34 2.5 51.5t6.5 33.5h-75l5 49h83q33 108 104.5 165.5t164.5 57.5q57 0 92.5 -18t55.5 -39l-19 -67q-23 27 -51.5 43.5t-73.5 16.5q-69 0 -121 -40.5t-78 -118.5h225
l-15 -49h-224q-5 -17 -7.5 -36t-2.5 -49h214l-16 -49h-195q10 -84 55.5 -124.5t114.5 -40.5q48 0 80.5 18.5t60.5 46.5z" />
    <glyph glyph-name="trademark" unicode="&#x2122;" horiz-adv-x="728" 
d="M630 280l-3 170l4 75l-113 -245h-51l-63 245l-10 -75l-38 -170h-55l74 330h57l65 -261l122 261h60l5 -330h-54zM126 280l29 280l-100 -1l5 51h256l-5 -51l-100 1l-29 -280h-56z" />
    <glyph glyph-name="Omega" unicode="&#x2126;" horiz-adv-x="648" 
d="M337 0l6 56q39 29 74 63.5t61.5 75t42.5 86t16 95.5q0 35 -9 68t-31 58.5t-57.5 40.5t-89.5 15q-69 0 -113.5 -21.5t-70.5 -55.5t-36 -75t-10 -81t10.5 -78t28 -72.5t41.5 -64.5t51 -54l-6 -56h-216l6 59h145q-26 19 -50.5 47t-43 62.5t-29.5 74.5t-11 83
q0 58 16.5 111.5t53 94.5t94 65.5t139.5 24.5q67 0 116.5 -19.5t81.5 -52.5t47.5 -77t15.5 -93q0 -54 -15.5 -102.5t-42 -90t-60.5 -74t-70 -54.5h137l-6 -59h-216z" />
    <glyph glyph-name="estimated" unicode="&#x212e;" horiz-adv-x="856" 
d="M752 130q-54 -63 -134 -101t-177 -38q-83 0 -155 28t-125 77t-83.5 114t-30.5 139q0 75 30 140t82.5 114t123.5 77t154 28q82 0 153.5 -28t124 -77t82.5 -114t30 -140v-14h-628q-5 0 -5 -4v-185q0 -11 2 -17.5t6 -11.5q45 -51 106.5 -73.5t133.5 -22.5q156 0 252 109h58z
M680 551q0 15 -2.5 22t-8.5 14q-46 45 -102.5 68t-128.5 23q-141 0 -235 -97q-9 -9 -9 -29v-187q0 -6 5 -6h476q5 0 5 6v186z" />
    <glyph glyph-name="partialdiff" unicode="&#x2202;" horiz-adv-x="540" 
d="M218 665q60 0 110 -25t86.5 -70t56.5 -108t20 -139q0 -79 -19 -141t-53 -105t-82.5 -66t-106.5 -23q-44 0 -81 13t-63.5 38.5t-41.5 62t-15 83.5q0 45 14.5 87t43 74.5t71.5 52t100 19.5q30 0 57 -6.5t49 -16.5t39 -22t28 -23q-2 55 -18.5 101.5t-45 80.5t-68.5 53.5
t-88 20.5zM424 284q-27 36 -70 56t-92 20q-42 0 -72.5 -15t-50 -39.5t-29 -56t-9.5 -64.5q0 -67 37.5 -103t91.5 -36q45 0 79.5 19t58.5 51.5t38 76t18 91.5z" />
    <glyph glyph-name="Delta" unicode="&#x2206;" horiz-adv-x="581" 
d="M320 570l-220 -505h333zM14 0l5 52l267 598h80l140 -598l-5 -52h-487z" />
    <glyph glyph-name="product" unicode="&#x220f;" horiz-adv-x="614" 
d="M408 -215l85 802h-314l-85 -802h-70l92 865h454l-92 -865h-70z" />
    <glyph glyph-name="summation" unicode="&#x2211;" horiz-adv-x="515" 
d="M-18 -215l5 51l278 377l-187 380l6 57h409l-8 -69h-324l181 -356l-1 -28l-253 -342h336l-8 -70h-434z" />
    <glyph glyph-name="minus" unicode="&#x2212;" horiz-adv-x="496" 
d="M42 279l7 61h404l-7 -61h-404z" />
    <glyph glyph-name="uni2219" unicode="&#x2219;" horiz-adv-x="218" 
d="M103 234q-22 0 -36.5 15t-14.5 37q0 26 17 43.5t42 17.5q22 0 37 -15t15 -38q0 -26 -18 -43t-42 -17z" />
    <glyph glyph-name="radical" unicode="&#x221a;" horiz-adv-x="466" 
d="M170 -64l-73 335h-79l6 60h121l68 -332l199 651h57l-219 -714h-80z" />
    <glyph glyph-name="infinity" unicode="&#x221e;" horiz-adv-x="662" 
d="M332 300q10 22 27 44t39.5 39.5t49 28.5t55.5 11q58 0 94.5 -39t36.5 -106q0 -46 -14.5 -81t-38.5 -58.5t-54.5 -35.5t-61.5 -12q-51 0 -88 31.5t-57 91.5q-11 -22 -28.5 -44t-40 -39.5t-49 -28.5t-55.5 -11q-57 0 -93.5 39t-36.5 106q0 46 14.5 81t38.5 58.5t54 35.5
t62 12q51 0 88.5 -31.5t57.5 -91.5zM308 262q-5 20 -15.5 39.5t-26 35.5t-35 25.5t-42.5 9.5q-33 0 -55 -13.5t-35.5 -33.5t-19 -42t-5.5 -40q0 -17 4.5 -35.5t15 -33.5t27.5 -24.5t42 -9.5q24 0 45.5 10.5t40 27.5t33.5 39t26 45zM345 261q5 -22 15 -43t25 -38t34.5 -27.5
t43.5 -10.5q33 0 55 13.5t35.5 33.5t19 42t5.5 40t-5 36t-15.5 33t-28 24.5t-42.5 9.5q-22 0 -43 -10t-40 -25.5t-34 -36t-25 -41.5z" />
    <glyph glyph-name="integral" unicode="&#x222b;" horiz-adv-x="354" 
d="M-11 -163q10 -1 21 -2t25 -1q33 0 46.5 17t18.5 57l63 611q3 26 10.5 51.5t21.5 46t35.5 33t52.5 12.5q41 0 70 -10l-6 -54l-22 2t-24 1q-32 0 -45 -17t-18 -57l-65 -611q-3 -26 -10.5 -51.5t-21.5 -46t-35.5 -33t-52.5 -12.5q-43 0 -70 10z" />
    <glyph glyph-name="approxequal" unicode="&#x2248;" horiz-adv-x="496" 
d="M420 205q-54 -45 -102 -45q-25 0 -46 9t-41 20.5t-40 20.5t-41 9q-28 0 -51 -13.5t-51 -38.5l7 66q18 14 43.5 29t57.5 15q25 0 46.5 -9t41.5 -20.5t39.5 -20.5t41.5 -9q47 0 103 53zM439 377q-56 -45 -103 -45q-25 0 -46 9t-41 20.5t-40 20.5t-41 9q-28 0 -51 -13.5
t-51 -38.5l7 66q18 14 44 29t58 15q25 0 46.5 -9t41 -20.5t39 -20.5t41.5 -9q47 0 103 53z" />
    <glyph glyph-name="notequal" unicode="&#x2260;" horiz-adv-x="496" 
d="M211 191l-113 -191h-55l112 191h-119l6 59h148l67 111h-203l6 58h230l105 175h56l-105 -175h111l-6 -58h-139l-66 -111h193l-6 -59h-222z" />
    <glyph glyph-name="lessequal" unicode="&#x2264;" horiz-adv-x="496" 
d="M27 304l6 56l433 212l-7 -64l-369 -178l331 -178l-6 -60zM-5 0l5 52h411l-5 -52h-411z" />
    <glyph glyph-name="greaterequal" unicode="&#x2265;" horiz-adv-x="496" 
d="M34 92l8 64l367 178l-330 178l5 60l388 -212l-6 -56zM24 0l5 52h410l-5 -52h-410z" />
    <glyph glyph-name="lozenge" unicode="&#x25ca;" horiz-adv-x="532" 
d="M425 328l-129 251l-185 -257l129 -250zM207 0l-165 325l235 325h52l165 -325l-234 -325h-53z" />
    <glyph glyph-name="uni0E10.alt1" unicode="&#xf700;" horiz-adv-x="553" 
d="M158 0l-66 202q-4 12 -9 24t-10 23.5t-9 20.5t-6 14h80l71 -224q39 4 78.5 23t71.5 52t52.5 80t20.5 108q0 81 -42.5 126.5t-135.5 45.5q-61 0 -111.5 -14.5t-92.5 -34.5l7 67q39 18 90.5 32t108.5 14q81 0 134 -29l66 64h90l-108 -96q35 -32 50.5 -77.5t15.5 -97.5
q0 -74 -25.5 -130.5t-66.5 -96.5t-92 -63.5t-103 -32.5h-59z" />
    <glyph glyph-name="uni0E34.alt1" unicode="&#xf701;" 
d="M-559 643l7 62h395l-7 -62h-395z" />
    <glyph glyph-name="uni0E35.alt1" unicode="&#xf702;" 
d="M-559 643l7 62h329l8 110h69l-18 -172h-395z" />
    <glyph glyph-name="uni0E36.alt1" unicode="&#xf703;" 
d="M-559 643l7 62h227q-4 12 -4 27q0 21 8 39t22.5 32t33.5 22t41 8q42 0 65.5 -26.5t23.5 -61.5q0 -42 -29.5 -72t-78.5 -30h-316zM-238 686q23 0 39.5 15.5t16.5 42.5q0 22 -12.5 34t-32.5 12q-25 0 -41 -15t-16 -43q0 -21 12.5 -33.5t33.5 -12.5z" />
    <glyph glyph-name="uni0E37.alt1" unicode="&#xf704;" 
d="M-559 643l7 62h214l9 110h63l-12 -113h60l9 113h63l-18 -172h-395z" />
    <glyph glyph-name="uni0E48.alt1" unicode="&#xf705;" 
d="M-317 643l21 202h70l-21 -202h-70z" />
    <glyph glyph-name="uni0E49.alt1" unicode="&#xf706;" 
d="M-466 643l6 47q18 4 36 11t32.5 17.5t24 24.5t9.5 32q0 14 -9 23t-26 9q-14 0 -28.5 -3t-24.5 -7l5 53q14 4 32.5 7.5t36.5 3.5q80 0 80 -74q0 -26 -14.5 -48.5t-38.5 -37.5l169 3l-7 -61h-283z" />
    <glyph glyph-name="uni0E4A.alt1" unicode="&#xf707;" 
d="M-276 643l6 58q2 24 -1.5 39.5t-22.5 15.5q-20 0 -30 -16t-15 -35h-51q-2 19 -9 35t-26 16t-27.5 -15.5t-10.5 -39.5l-6 -58h-66l7 63q5 47 29 79t68 32q59 0 70 -57q28 57 84 57q45 0 64.5 -32t8.5 -86l77 3l-6 -59h-143z" />
    <glyph glyph-name="uni0E4B.alt1" unicode="&#xf708;" 
d="M-273 744l-8 -101h-68l12 101l-102 -3l6 60l102 -2l9 100h68l-13 -100l101 2l-6 -60z" />
    <glyph glyph-name="uni0E4C.alt1" unicode="&#xf709;" 
d="M-282 723q-28 0 -42 -10.5t-14 -40.5q0 -19 4 -36h-70q-6 22 -6 44q0 51 27 78.5t93 27.5h142l-7 -63h-127z" />
    <glyph glyph-name="uni0E48.alt2" unicode="&#xf70a;" 
d="M-106 643l21 202h70l-21 -202h-70z" />
    <glyph glyph-name="uni0E49.alt2" unicode="&#xf70b;" 
d="M-259 643l6 47q18 4 36 11t32.5 17.5t24 24.5t9.5 32q0 14 -9 23t-26 9q-14 0 -28.5 -3t-24.5 -7l5 53q14 4 32.5 7.5t36.5 3.5q80 0 80 -74q0 -26 -14.5 -48.5t-38.5 -37.5l169 3l-7 -61h-283z" />
    <glyph glyph-name="uni0E4A.alt2" unicode="&#xf70c;" 
d="M-124 643l6 58q2 24 -1.5 39.5t-22.5 15.5q-20 0 -30 -16t-15 -35h-51q-2 19 -9 35t-26 16t-27.5 -15.5t-10.5 -39.5l-6 -58h-66l7 63q5 47 29 79t68 32q59 0 70 -57q28 57 84 57q45 0 64.5 -32t8.5 -86l80 3l-6 -59h-146z" />
    <glyph glyph-name="uni0E4B.alt2" unicode="&#xf70d;" 
d="M-113 744l-8 -101h-67l12 101l-102 -3l6 60l102 -2l9 100h67l-13 -100l102 2l-6 -60z" />
    <glyph glyph-name="uni0E4C.alt2" unicode="&#xf70e;" 
d="M-110 723q-27 0 -41.5 -10.5t-14.5 -40.5q0 -19 4 -36h-70q-7 21 -7 43q0 51 27.5 79t93.5 28h144l-7 -63h-129z" />
    <glyph glyph-name="uni0E0D.alt1" unicode="&#xf70f;" horiz-adv-x="932" 
d="M815 547h72l-38 -362q-10 -90 -69 -143.5t-160 -53.5q-50 0 -89 12.5t-65.5 37t-38 61.5t-5.5 86l16 139q11 94 -18.5 132.5t-108.5 38.5q-39 0 -82 -9t-75 -21v-65l-28 -259q-6 -54 8.5 -72t42.5 -18q30 0 49.5 7t36.5 18l-8 -65q-31 -22 -100 -22q-23 0 -43 7.5
t-34.5 24.5t-21.5 44.5t-3 67.5l29 271v103q48 20 108.5 36t121.5 16q106 0 158 -55.5t39 -179.5l-15 -136q-8 -67 25 -101.5t102 -34.5q70 0 109 37.5t46 98.5z" />
    <glyph glyph-name="uni0E31.alt1" unicode="&#xf710;" 
d="M-388 643q-52 0 -80.5 21.5t-28.5 59.5q0 30 16 65h67q-12 -30 -12 -50t10 -27t33 -7h245l-7 -62h-243z" />
    <glyph glyph-name="uni0E4D.alt1" unicode="&#xf711;" 
d="M-285 668q27 0 44.5 17.5t17.5 45.5q0 23 -13.5 37t-36.5 14q-27 0 -45 -17.5t-18 -45.5q0 -23 14 -37t37 -14zM-167 733q0 -24 -8.5 -45t-24.5 -36.5t-38 -25t-50 -9.5q-49 0 -76 29t-27 71q0 24 8.5 45t24 36.5t38 25t50.5 9.5q48 0 75.5 -29t27.5 -71z" />
    <glyph glyph-name="uni0E47.alt1" unicode="&#xf712;" 
d="M-243 643q-29 0 -50 16.5t-29 47.5q-15 -32 -40 -50t-60 -18q-48 0 -75 30t-27 81q0 69 42.5 101.5t112.5 32.5h220l-6 -56h-217q-45 0 -67.5 -19.5t-22.5 -55.5q0 -32 15.5 -46t32.5 -14q32 0 47 19.5t20 44.5h53q2 -23 16 -40t47 -17h62l-6 -57h-68z" />
    <glyph glyph-name="uni0E48.alt3" unicode="&#xf713;" 
d="M-208 869l17 161h69l-17 -161h-69z" />
    <glyph glyph-name="uni0E49.alt3" unicode="&#xf714;" 
d="M-368 869l4 42q16 4 33 10.5t30.5 15.5t22 22t8.5 30q0 29 -35 29q-11 0 -23.5 -2.5t-21.5 -6.5l5 49q25 11 62 11q35 0 54 -20t19 -49q0 -31 -14 -48.5t-33 -30.5l158 4l-6 -56h-263z" />
    <glyph glyph-name="uni0E4A.alt3" unicode="&#xf715;" 
d="M-226 869l5 51q2 22 -1 35t-19 13q-17 0 -26.5 -13.5t-14.5 -31.5h-44q-2 18 -8.5 31.5t-23.5 13.5t-23 -13t-8 -35l-5 -51h-61l6 56q5 43 25.5 71.5t60.5 28.5q52 0 63 -53q23 53 75 53q42 0 58 -28t5 -76l72 2l-6 -54h-130z" />
    <glyph glyph-name="uni0E4B.alt3" unicode="&#xf716;" 
d="M-138 959l-7 -90h-61l11 90l-90 -2l6 56l90 -2l7 91h61l-11 -91l90 2l-6 -56z" />
    <glyph glyph-name="uni0E4C.alt3" unicode="&#xf717;" 
d="M-213 860q-26 0 -38.5 -9.5t-12.5 -36.5q0 -7 1 -15.5t4 -18.5h-65q-8 24 -8 40q0 45 24.5 71.5t84.5 26.5h145l-6 -58h-129z" />
    <glyph glyph-name="uni0E38.alt1" unicode="&#xf718;" 
d="M-221 -459l10 96q2 21 -5 31.5t-30 10.5q-8 0 -19 -2t-21 -5l6 57q14 4 30 6.5t30 2.5q42 0 63.5 -21t16.5 -66l-12 -110h-69z" />
    <glyph glyph-name="uni0E39.alt1" unicode="&#xf719;" 
d="M-198 -270h66l-10 -94q-3 -29 -15.5 -49.5t-32 -33.5t-44 -18.5t-52.5 -5.5t-53 5.5t-43.5 18.5t-28.5 33.5t-7 49.5l4 44h-57l5 50h124l-9 -86q-4 -33 12 -45t54 -12t56 12t22 45z" />
    <glyph glyph-name="uni0E3A.alt1" unicode="&#xf71a;" 
d="M-179 -373q-22 0 -36 14t-14 37q0 27 18.5 43.5t43.5 16.5q20 0 34.5 -13.5t14.5 -36.5q0 -27 -19 -44t-42 -17z" />
    <glyph glyph-name="uni0E0E.alt1" unicode="&#xf71b;" horiz-adv-x="622" 
d="M433 -213q-60 42 -107 60.5t-92 18.5q-51 0 -77.5 -21t-29.5 -57h-62q6 66 50 100.5t116 34.5q49 0 98.5 -19.5t100.5 -53.5l51 474q5 47 1 79.5t-19 53t-41 29.5t-66 9q-45 0 -86 -9t-73 -21v-65l-30 -278q-5 -41 -15 -66.5t-26 -40.5t-37 -20.5t-47 -5.5
q-20 0 -35.5 3.5t-24.5 8.5l7 63q8 -5 20 -9t26 -4q28 0 41.5 16.5t18.5 56.5l30 280v103q48 20 109.5 36t122.5 16q109 0 158.5 -55.5t36.5 -179.5l-56 -537h-63z" />
    <glyph glyph-name="uni0E0F.alt1" unicode="&#xf71c;" horiz-adv-x="622" 
d="M420 -213q-49 0 -85.5 17.5t-43.5 59.5q-15 -35 -47.5 -56t-71.5 -23q-26 -2 -54.5 3.5t-51.5 19.5l7 67q19 -14 39.5 -23t49.5 -9q40 0 64.5 20.5t38.5 63.5h61q7 -42 28.5 -60.5t58.5 -18.5h17l51 476q5 47 1 79.5t-19 53t-41 29.5t-66 9q-45 0 -86 -9t-73 -21v-65
l-30 -278q-5 -41 -15 -66.5t-26 -40.5t-37 -20.5t-47 -5.5q-20 0 -35.5 3.5t-24.5 8.5l7 63q8 -5 20 -9t26 -4q28 0 41.5 16.5t18.5 56.5l30 280v103q48 20 109.5 36t122.5 16q109 0 158.5 -55.5t36.5 -179.5l-56 -537h-76z" />
    <glyph glyph-name="uni0E2C.alt1" unicode="&#xf71d;" horiz-adv-x="647" 
d="M469 0l-147 295l-205 -295h-78l58 547h70l-34 -323q-4 -35 -8.5 -68.5t-14.5 -78.5h2q10 18 19 33.5t19 31t21 31.5t25 36l103 147h57l72 -148q10 -20 18 -36.5t14.5 -31.5t12.5 -30t12 -33h2q-1 35 1 73.5t6 73.5l15 130q6 53 -11 71t-54 18q-20 0 -37.5 -3t-31.5 -7
l6 57q30 13 78 13l86 91h81l-104 -102q34 -13 49.5 -45t9.5 -87l-38 -360h-74z" />
    <glyph glyph-name="uniF8FF" unicode="&#xf8ff;" horiz-adv-x="1170" 
d="M1070 555v-555l-485 -276l-485 276v555l485 277zM614 779l310 -479l93 248zM153 548l93 -248l310 479zM129 18l98 251v2l-98 261v-514zM556 -230l-310 469l-93 -239zM261 269l324 -492l324 492l-324 501zM1018 0l-94 239l-310 -469zM1041 532l-98 -263l98 -251v514z
M415 300q2 -2 5 -4t4 -4q0 -5 1 -8q-20 -23 -36.5 -29t-25.5 -6q18 12 32.5 28.5t19.5 22.5zM450 199q8 0 10 -14t-1 -27q-5 -14 -14 -19.5t-21 -5.5q-15 1 -22.5 10.5t-10.5 21.5t-4 22.5t-2 15.5q-2 8 -2 19t-1 23h1q8 3 18 9.5t21 17.5q4 -19 2.5 -38t-4.5 -33
q-1 -4 -1.5 -11t0.5 -13.5t2.5 -12.5t5.5 -7q7 -2 9 3t3 8q1 8 -1.5 10.5t-4.5 6.5q-2 5 5.5 9.5t11.5 4.5zM558 212q1 1 1.5 4t2.5 6q1 4 3 8q-1 -2 -0.5 -8.5t0.5 -14.5q0 -9 1 -19q-6 1 -11 6q-3 2 -4 3q1 2 3 5q1 2 2 5t2 5zM765 173q2 5 5 8t5 9v-6v-6t-2 -8
q-3 -8 -5 -22t-2 -22q2 -8 2.5 -14t-4.5 -8q1 1 1 4q0 2 -2 12q-5 11 -3 30q1 4 2 11t3 12zM553 125q4 -4 9 -2q3 0 6 2q0 -8 1.5 -13.5t-0.5 -10.5q-1 3 -4 7t-9 2q-3 0 -7 -8q-2 8 -8 8q-5 0 -6.5 -3t-3.5 -6l-4 6l-6 3q-3 0 -5.5 -3.5t-4.5 -5.5q-2 7 2 22q1 3 0.5 8.5
t-0.5 10.5q-1 6 -1 13q14 -6 25 -16t16 -14zM576 168q2 2 10 2q1 -4 -2 -13q-8 6 -8 11zM568 155q2 2 6 1t7 -3l-2 -4q-1 -2 -2 -3t-2 -3q-7 5 -7 12zM562 141q2 1 10 -3q-5 -5 -9 -6q-2 2 -3.5 5t0.5 3zM558 106q5 2 7 -6q-2 -4 -13 -6q2 12 6 12zM541 105q2 0 3 -3.5
t3 -7.5h-6h-8q0 4 2.5 7.5t5.5 3.5zM524 104q4 -4 4 -9q-10 2 -13 4q6 8 7 7zM748 106q3 1 7 -6q-2 -2 -5 -3.5t-9 -2.5q3 12 7 12zM730 105q2 0 4 -3.5t3 -7.5h-6h-8q1 4 3 7.5t4 3.5zM713 105q3 -3 5 -10q-5 2 -8.5 2.5t-5.5 1.5q3 8 6 7zM798 241q1 -3 3 -7q1 -3 2 -7.5
t1 -9.5t-1 -9.5t-2 -8.5l-2 -8q-3 4 -6 10q-2 5 -3.5 14t-0.5 23q1 15 0 28q-1 11 -2.5 23t-4.5 20q-2 -13 -5 -24l-4 -20t-4 -15q-3 -10 -1.5 -24t3.5 -21q2 -8 -3 -13t-9 -16q-3 -8 -4.5 -17t-1.5 -14q0 -7 1 -15.5t5 -17.5q2 -8 0 -10q-2 3 -4.5 6t-7.5 2q-4 0 -8 -8
q-2 8 -9 8q-5 0 -10 -7l-2 6l-7 2q-4 0 -6.5 -3t-4.5 -6q-2 4 -1 9q4 17 7.5 38t-2.5 34q-3 6 -10 14.5t-14.5 19t-13 22t-6.5 25.5q-1 -1 -2 -4q-2 -6 2 -17q-12 -2 -25 -1q-12 1 -27.5 3t-33.5 8q0 2 1 5q1 2 1.5 5.5t2.5 8.5q-2 -4 -6 -8q-3 -4 -6.5 -10.5t-5.5 -15.5
q-2 -6 -8 -19.5t-8 -18.5t7 -11.5t14 -8.5l8 -2t7 -3q-6 0 -9 -5v-2q0 -3 4 -9q-8 2 -10 -2l-1 -4q0 -5 3 -8h-7l-5 -2q-2 -7 2 -12q-2 2 -5 3.5t-7 4.5q-5 4 -11.5 9t-13 9.5t-12 7.5t-7.5 3q-4 2 -10 8.5t-5 23.5q1 8 3 22t3.5 28.5t3.5 27t3 17.5q-2 0 -3 -2
q-1 -1 -5 -11l-16 25q5 3 8.5 8t5.5 9l6 -9l4 -6l4 3q0 1 4.5 6.5t6.5 11.5q5 12 7 27l1.5 7.5t1.5 4.5l3 7l5 12.5t4.5 16t0 17t-8.5 16.5q-8 7 -15.5 9.5t-14.5 2.5q-8 0 -15 -2l5 -0.5t11 -2t12.5 -4t10.5 -7.5q8 -9 8 -22q0 -10 -3.5 -18t-5.5 -16l-3 -7q-1 -2 -1.5 -5
t-2.5 -8q-2 -12 -5 -26q-2 -2 -4.5 -6t-4.5 -7q-3 3 -7 11q-2 4 -4 7l-3 -5q-2 -3 -6.5 -10.5t-9.5 -10.5q-7 -3 -12 -5t-9 -6q-2 -2 -4.5 -5t-4.5 -11q-1 -3 -2.5 -4.5l-3.5 -3.5t-4 -2v2q0 1 -0.5 2.5t-0.5 3.5q-1 2 -0.5 5t0.5 5v4l-16 13l-3 -2q-4 -6 -9 -12
q-5 -5 -11 -12t-13 -14q-1 2 -1 3.5t-1 3.5q-1 -2 -5 -4q-3 -2 -8 -3.5t-13 -1.5q15 11 21 19q3 4 3 6q-1 9 -1 17.5v15.5q0 8 1 16q-1 7 -1.5 22t1.5 23t4.5 15.5t7.5 23.5q6 14 15 18q4 2 10 2q5 6 10 11t10.5 8.5t12.5 4.5q21 2 36.5 -1t28.5 -1q6 1 16 3t21.5 4t22.5 3
t20 0q8 -1 25 -4.5t36.5 -9t37.5 -12.5t29 -15q10 -9 22.5 -19.5t23.5 -24.5t19.5 -31.5t10.5 -40.5t3 -38t2 -24v-17zM450 383q0 2 1.5 3.5l3.5 3.5t4 5q-2 1 -5 1q-6 0 -10 -5q-4 -3 -4 -11q0 -4 1 -7l3 3q2 2 3 3.5t3 3.5zM521 423q-4 6 -8 8t-9 3t-10 0q18 -5 22 -16
q2 -10 2 -17q0 -5 -1 -10q3 5 5 10t2 10.5t-3 11.5z" />
    <glyph glyph-name="NULL" 
 />
    <glyph glyph-name="uni0E33.alt1" horiz-adv-x="470" 
d="M-285 668q27 0 44.5 17.5t17.5 45.5q0 23 -13.5 37t-36.5 14q-27 0 -45 -17.5t-18 -45.5q0 -23 14 -37t37 -14zM-167 733q0 -24 -8.5 -45t-24.5 -36.5t-38 -25t-50 -9.5q-49 0 -76 29t-27 71q0 24 8.5 45t24 36.5t38 25t50.5 9.5q48 0 75.5 -29t27.5 -71zM292 0l37 350
q8 81 -21.5 114t-92.5 33q-61 0 -105 -18t-77 -39l8 71q32 17 75.5 32.5t104.5 15.5q41 0 76.5 -11t60 -35.5t36.5 -64.5t6 -98l-37 -350h-71z" />
    <glyph glyph-name="uni0E4E.alt1" 
 />
    <glyph glyph-name="uni0E01.alt" horiz-adv-x="608" 
d="M432 0l36 341q4 44 -2.5 74t-25 48t-49 26t-74.5 8q-23 0 -39 -1.5t-34 -4.5q-22 -20 -39 -39t-29.5 -43t-21 -55t-12.5 -75l-29 -279h-72l29 274q8 70 32.5 118.5t70.5 89.5q-26 -4 -52 -9t-52 -9l5 45q48 21 111 35.5t133 14.5q124 0 179 -54.5t45 -153.5l-37 -351h-73
z" />
    <glyph glyph-name="uni0E2B.alt" horiz-adv-x="604" 
d="M431 0l20 194q4 42 -2 69t-20.5 43t-35.5 22t-46 6q-57 0 -109.5 -16.5t-97.5 -40.5l-29 -277h-72l58 547h72l-22 -209q19 10 43.5 20.5t52.5 19t57.5 14t59.5 5.5q5 0 8.5 -0.5t8.5 -0.5l103 151h81l-117 -167q51 -20 69 -67t11 -111l-21 -202h-72z" />
    <glyph glyph-name="uni0E2D.alt" horiz-adv-x="587" 
d="M530 304q0 -84 -22.5 -144t-62.5 -98.5t-94 -56t-118 -17.5q-63 0 -120 13.5t-92 33.5l28 260h72l-24 -220q24 -12 58.5 -17.5t79.5 -5.5q50 0 91 14t70 44t45 78t16 116q0 94 -47 142.5t-141 48.5q-60 0 -112 -14t-95 -34l8 70q38 16 88 29t114 13q124 0 191 -68
t67 -187z" />
    <glyph glyph-name="zero.tab" horiz-adv-x="580" 
d="M263 -12q-49 0 -89 18t-68.5 52t-44.5 84t-16 114q0 87 19 155t55 115t86.5 71.5t113.5 24.5q100 0 157.5 -69t57.5 -199q0 -176 -69.5 -271t-201.5 -95zM317 559q-51 0 -88.5 -22.5t-62 -63t-36.5 -96.5t-12 -122q0 -96 35 -150t110 -54q51 0 88.5 22.5t62 63t36.5 96.5
t12 122q0 96 -35 150t-110 54z" />
    <glyph glyph-name="one.tab" horiz-adv-x="580" 
d="M260 0l57 531q-32 -38 -72.5 -54t-88.5 -14l7 63q54 -2 95.5 20t73.5 64h64l-65 -610h-71z" />
    <glyph glyph-name="two.tab" horiz-adv-x="580" 
d="M55 0l6 57q90 56 156 106t109.5 97t65 92.5t21.5 91.5q0 54 -30 84.5t-97 30.5q-45 0 -89 -11.5t-76 -26.5l8 68q25 11 68.5 22t91.5 11q56 0 94 -15t61 -40.5t33 -58t10 -66.5q0 -59 -26.5 -111t-70.5 -98.5t-101 -88.5t-118 -80h284l-6 -64h-394z" />
    <glyph glyph-name="three.tab" horiz-adv-x="580" 
d="M353 317q22 -5 42 -15.5t35.5 -27t24.5 -39.5t9 -52q0 -51 -17 -87.5t-47 -60.5t-71 -35.5t-89 -11.5q-55 0 -100 15.5t-76 36.5l6 66q30 -20 72 -37.5t94 -17.5q30 0 58.5 6t50.5 21t35 40t13 64q0 32 -14.5 52.5t-40 32.5t-59.5 16t-72 3l6 61q41 -1 76.5 5t61.5 21
t41 39.5t15 61.5q0 85 -121 85q-39 0 -83.5 -11t-76.5 -26l7 65q28 13 69 24t93 11q37 0 70 -8t58.5 -25.5t40.5 -44.5t15 -65q0 -34 -10.5 -60.5t-28 -46t-40 -33t-46.5 -20.5z" />
    <glyph glyph-name="four.tab" horiz-adv-x="580" 
d="M330 0l14 127h-308l6 56l349 427h74l-44 -421h89l-7 -62h-89l-14 -127h-70zM384 511l-257 -322h224z" />
    <glyph glyph-name="five.tab" horiz-adv-x="580" 
d="M68 102q30 -20 72.5 -35.5t96.5 -15.5q87 0 129.5 36t42.5 114q0 60 -39.5 86.5t-108.5 26.5q-57 0 -95.5 -5t-64.5 -10l46 311h344l-7 -64h-278l-27 -178q17 2 41 5t50 3q103 0 157 -44.5t54 -123.5q0 -106 -64.5 -163t-176.5 -57q-58 0 -105 14t-74 34z" />
    <glyph glyph-name="six.tab" horiz-adv-x="580" 
d="M472 531q-19 11 -46.5 20t-63.5 9q-88 0 -146.5 -64.5t-72.5 -185.5q14 17 34.5 32.5t44.5 27t51 18.5t54 7q46 0 79.5 -14t55.5 -38.5t32.5 -57t10.5 -69.5q0 -52 -17 -94t-46.5 -72t-69 -46t-84.5 -16q-103 0 -160.5 63t-57.5 193q0 93 23 164t62.5 118.5t93 71.5
t113.5 24q37 0 67.5 -9t49.5 -19zM134 240q-2 -42 7 -76.5t28 -60t48.5 -39.5t68.5 -14q26 0 53 9t48.5 28.5t35 51.5t13.5 77q0 24 -6 45.5t-20 38t-37 26.5t-57 10q-52 0 -100 -25.5t-82 -70.5z" />
    <glyph glyph-name="seven.tab" horiz-adv-x="580" 
d="M138 0l281 546h-312l7 64h392l-6 -55l-286 -555h-76z" />
    <glyph glyph-name="eight.tab" horiz-adv-x="580" 
d="M355 309q66 -12 100 -50t34 -92q0 -85 -59 -132t-173 -47q-44 0 -81 10t-63 29t-40.5 46t-14.5 62q0 66 40 109t131 63q0 1 -1 2q-35 8 -58.5 22.5t-38 33.5t-20.5 40.5t-6 44.5q0 38 15 70t42 54.5t66 35t87 12.5q91 0 140.5 -39.5t49.5 -105.5q0 -32 -11 -58t-31 -46
t-47.5 -35.5t-59.5 -26.5zM278 278q-32 -8 -59 -20t-47.5 -29t-32 -38.5t-11.5 -48.5q0 -49 35.5 -72.5t98.5 -23.5q25 0 53 6t51.5 20t39 37.5t15.5 58.5q0 50 -40 75t-103 35zM307 340q25 9 48 20.5t41 27.5t28.5 37t10.5 49q0 40 -30.5 65.5t-90.5 25.5q-66 0 -104 -32
t-38 -81q0 -50 35.5 -75.5t99.5 -36.5z" />
    <glyph glyph-name="nine.tab" horiz-adv-x="580" 
d="M108 79q18 -11 45.5 -20.5t63.5 -9.5q88 0 144.5 64.5t70.5 185.5q-29 -34 -76.5 -59t-107.5 -25q-47 0 -80 14t-54 38t-30.5 55t-9.5 66q0 54 17 97.5t48 73.5t73 46.5t92 16.5q93 0 149 -63.5t56 -193.5q0 -93 -23 -163.5t-63 -118t-93 -71.5t-113 -24q-37 0 -67 9
t-49 19zM441 370q1 41 -7 76t-25.5 60.5t-45 39.5t-64.5 14q-29 0 -56.5 -9t-50 -28.5t-36 -51t-13.5 -76.5q0 -24 6 -46t20 -38.5t36.5 -26.5t56.5 -10q54 0 100 25.5t79 70.5z" />
    </font>
</defs>
</svg>
