<?xml version="1.0" standalone="no"?>
<!DOCTYPE svg PUBLIC "-//W3C//DTD SVG 1.1//EN" "http://www.w3.org/Graphics/SVG/1.1/DTD/svg11.dtd" >
<svg xmlns="http://www.w3.org/2000/svg" xmlns:xlink="http://www.w3.org/1999/xlink" version="1.1">
<metadata>
Created by FontForge 20201107 at Mon Nov 25 05:53:09 2013
 By 
Copyright (c) 2013 by Chorong Kim &#38; Cadson Demak Team for SCG Group. All rights reserved.
</metadata>
<defs>
<font id="SCG-Regular" horiz-adv-x="0" >
  <font-face 
    font-family="SCG"
    font-weight="400"
    font-stretch="normal"
    units-per-em="1000"
    panose-1="2 0 5 3 0 0 0 2 0 4"
    ascent="800"
    descent="-200"
    x-height="450"
    cap-height="610"
    bbox="-624 -471 1147 1102"
    underline-thickness="20"
    underline-position="-133"
    unicode-range="U+0020-FB02"
  />
<missing-glyph horiz-adv-x="555" 
d="M0 0v700h555v-700h-555zM466 650h-377l188 -255zM500 605l-189 -255l189 -255v510zM277 305l-188 -255h377zM244 350l-188 255v-510z" />
    <glyph glyph-name="uni0E5A" unicode="&#xe2f;&#xe2f;" horiz-adv-x="680" 
d="M354 -80v535q-27 -48 -68.5 -79t-105.5 -31q-66 0 -101.5 33.5t-35.5 102.5q0 20 4 37.5t8 28.5h70q-4 -9 -7.5 -23.5t-3.5 -37.5q0 -14 4 -28t13 -25.5t23.5 -18.5t35.5 -7q34 0 60.5 12t46 32t33.5 45t24 51h76v-627h-76zM529 -80v627h75v-627h-75z" />
    <glyph glyph-name="uni0E4F.liga" unicode="&#xe4f;&#x22;" horiz-adv-x="580" 
d="M185 532l-9 205h71l-9 -205h-53zM343 532l-9 205h71l-9 -205h-53zM520 248q0 -50 -18.5 -91.5t-50 -71.5t-73.5 -47t-88 -17q-47 0 -88.5 17t-73 47t-50 71.5t-18.5 91.5q0 49 18.5 90.5t50 71.5t73 46.5t88.5 16.5q46 0 88 -16.5t73.5 -46.5t50 -71.5t18.5 -90.5z
M290 56q40 0 74.5 15t60.5 41t41 61t15 75q0 39 -15 73.5t-41 60.5t-60.5 41t-74.5 15q-39 0 -74 -15t-61 -41t-41 -60.5t-15 -73.5q0 -40 15 -75t41 -61t61 -41t74 -15zM290 156q38 0 64.5 26.5t26.5 64.5t-26.5 64.5t-64.5 26.5t-64.5 -26.5t-26.5 -64.5t26.5 -64.5
t64.5 -26.5zM290 113q-28 0 -52.5 10.5t-42.5 29t-28.5 43t-10.5 52.5q0 27 10.5 51t28.5 42.5t42.5 29t52.5 10.5t52.5 -10.5t42.5 -29t28.5 -42.5t10.5 -51q0 -28 -10.5 -52.5t-28.5 -43t-42.5 -29t-52.5 -10.5z" />
    <glyph glyph-name="uni0E24.liga" unicode="&#xe24;&#xe32;" horiz-adv-x="998" 
d="M848 -223v547q0 47 -9 79.5t-29.5 53t-52.5 29.5t-77 9q-42 0 -79.5 -8t-69.5 -16q34 -53 34 -142v-552h-76v547q0 47 -9 79.5t-29.5 53t-52.5 29.5t-77 9q-48 0 -92 -6.5t-77 -15.5v-332q0 -27 4.5 -44.5t14.5 -27.5t26 -14t38 -4t40.5 4.5t34.5 11.5v-62
q-16 -7 -39 -11.5t-49 -4.5q-33 0 -59.5 7.5t-46 24.5t-30 44.5t-10.5 67.5v386q48 15 112 27.5t139 12.5q94 0 149 -34q45 13 97.5 23.5t112.5 10.5q117 0 177.5 -55t60.5 -175v-552h-76z" />
    <glyph glyph-name="uni0E26.liga" unicode="&#xe26;&#xe32;" horiz-adv-x="998" 
d="M848 -223v547q0 47 -9 79.5t-29.5 53t-52.5 29.5t-77 9q-35 0 -69 -5.5t-63 -13.5q33 -53 33 -138v-561h-76v556q0 43 -8 74t-26 50.5t-47.5 28.5t-71.5 9q-45 0 -83 -6.5t-71 -15.5v-351q0 -69 -30.5 -101t-85.5 -32q-21 0 -37 2t-27 5v63q9 -3 21.5 -5.5t26.5 -2.5
q26 0 41 16.5t15 56.5v395q48 15 106.5 27.5t128.5 12.5q82 0 135 -30q42 12 91 21t103 9q117 0 177.5 -55t60.5 -175v-552h-76z" />
    <glyph glyph-name="fi" unicode="fi" horiz-adv-x="577" 
d="M107 0v393h-84v57h84v21q0 96 64 143t178 47q45 0 85 -7.5t69 -18.5v-61q-32 11 -67 18.5t-80 7.5q-85 0 -130 -30t-45 -100v-20h144v-57h-142v-393h-76zM427 0v450h76v-450h-76z" />
    <glyph glyph-name="fl" unicode="fl" horiz-adv-x="577" 
d="M429 0v594q-16 2 -38 4.5t-48 2.5q-81 0 -121.5 -31t-40.5 -100v-20h144v-57h-142v-393h-76v393h-84v57h84v21q0 94 60 142t171 48q48 0 89.5 -5t75.5 -13v-643h-74z" />
    <glyph glyph-name=".notdef" horiz-adv-x="555" 
d="M0 0v700h555v-700h-555zM466 650h-377l188 -255zM500 605l-189 -255l189 -255v510zM277 305l-188 -255h377zM244 350l-188 255v-510z" />
    <glyph glyph-name=".null" 
 />
    <glyph glyph-name="nonmarkingreturn" horiz-adv-x="264" 
 />
    <glyph glyph-name="space" unicode=" " horiz-adv-x="264" 
 />
    <glyph glyph-name="exclam" unicode="!" horiz-adv-x="244" 
d="M93 215l-13 395h84l-12 -395h-59zM180 48q0 -24 -17 -40t-41 -16t-41 16t-17 40q0 25 17 41t41 16t41 -16t17 -41z" />
    <glyph glyph-name="quotedbl" unicode="&#x22;" horiz-adv-x="344" 
d="M71 410l-9 240h73l-9 -240h-55zM218 410l-9 240h73l-9 -240h-55z" />
    <glyph glyph-name="numbersign" unicode="#" horiz-adv-x="612" 
d="M317 0l37 179h-158l-37 -179h-61l38 179h-99v58h111l36 174h-97v59h109l38 178h61l-38 -178h158l38 178h61l-38 -178h99v-59h-111l-36 -174h98v-58h-111l-37 -179h-61zM403 411h-158l-36 -174h158z" />
    <glyph glyph-name="dollar" unicode="$" horiz-adv-x="612" 
d="M282 -100v90q-32 1 -63 7.5t-58.5 16t-50.5 20.5t-38 22l29 57q35 -25 83 -42.5t117 -17.5q26 0 54 4t51 14.5t38 29.5t15 49q0 27 -16 47t-41.5 35t-57.5 28t-64 27q-30 13 -64.5 28.5t-63 36.5t-47.5 49.5t-19 67.5q0 74 53.5 111t142.5 41v89h55v-90q60 -4 100.5 -20
t69.5 -36l-29 -55q-35 23 -75 36t-94 13q-69 0 -107.5 -20t-38.5 -68q0 -24 13.5 -41.5t36 -31.5t50.5 -26t57 -25q32 -14 70 -30t70.5 -38t54.5 -53t22 -75q0 -38 -15.5 -66.5t-42.5 -48t-63.5 -30.5t-78.5 -14v-91h-55z" />
    <glyph glyph-name="percent" unicode="%" horiz-adv-x="692" 
d="M92 0l448 610h60l-447 -610h-61zM185 329q-67 0 -102.5 41.5t-35.5 104.5t35.5 104.5t102.5 41.5t102.5 -41.5t35.5 -104.5t-35.5 -104.5t-102.5 -41.5zM185 372q42 0 64.5 27.5t22.5 75.5t-22.5 75.5t-64.5 27.5t-64.5 -27.5t-22.5 -75.5t22.5 -75.5t64.5 -27.5z
M507 -11q-67 0 -102.5 41.5t-35.5 104.5t35.5 104.5t102.5 41.5t102.5 -41.5t35.5 -104.5t-35.5 -104.5t-102.5 -41.5zM507 32q42 0 64.5 27.5t22.5 75.5t-22.5 75.5t-64.5 27.5t-64.5 -27.5t-22.5 -75.5t22.5 -75.5t64.5 -27.5z" />
    <glyph glyph-name="ampersand" unicode="&#x26;" horiz-adv-x="643" 
d="M538 0l-69 67q-40 -38 -91.5 -58.5t-112.5 -20.5q-46 0 -86 11t-70 32t-47 53t-17 74q0 65 37 109t100 76q-14 13 -28 28t-25.5 33t-19 38.5t-7.5 44.5q0 58 45 96.5t130 38.5q88 0 131.5 -43.5t43.5 -118.5h-69q0 49 -24 77.5t-81 28.5q-48 0 -76.5 -20t-28.5 -57
q0 -35 22 -63.5t48 -54.5l220 -214q43 71 43 178h73q0 -66 -18 -123t-50 -102l114 -110h-87zM228 301q-51 -23 -79.5 -56.5t-28.5 -84.5q0 -33 14.5 -54.5t36 -34t46.5 -17.5t47 -5q99 0 159 60z" />
    <glyph glyph-name="quotesingle" unicode="'" horiz-adv-x="205" 
d="M75 410l-9 240h73l-9 -240h-55z" />
    <glyph glyph-name="parenleft" unicode="(" horiz-adv-x="280" 
d="M260 -133q-42 26 -78.5 65t-64 89.5t-43.5 111t-16 129.5t16 129.5t43.5 111t64 89.5t78.5 65v-43q-60 -51 -94.5 -142.5t-34.5 -209.5t34.5 -209t94.5 -142v-44z" />
    <glyph glyph-name="parenright" unicode=")" horiz-adv-x="280" 
d="M20 -89q60 51 94.5 142t34.5 209t-34.5 209.5t-94.5 142.5v43q42 -26 78.5 -65t64 -89.5t43.5 -111t16 -129.5t-16 -129.5t-43.5 -111t-64 -89.5t-78.5 -65v44z" />
    <glyph glyph-name="asterisk" unicode="*" horiz-adv-x="436" 
d="M238 441l9 -137h-57l8 137l-116 -83l-28 43l129 72l-129 73l28 41l116 -81l-8 136h57l-9 -136l116 81l28 -41l-128 -73l128 -72l-28 -43z" />
    <glyph glyph-name="plus" unicode="+" horiz-adv-x="522" 
d="M227 83v196h-187v61h187v196h68v-196h187v-61h-187v-196h-68z" />
    <glyph glyph-name="comma" unicode="," horiz-adv-x="228" 
d="M56 -105q17 19 33.5 45t16.5 53q-19 1 -35 16t-16 40q0 24 16 40t43 16q34 0 47.5 -20t13.5 -41q0 -26 -7.5 -50t-19.5 -45t-27 -38t-29 -29z" />
    <glyph glyph-name="hyphen" unicode="-" horiz-adv-x="326" 
d="M35 272v65h256v-65h-256z" />
    <glyph glyph-name="period" unicode="." horiz-adv-x="226" 
d="M171 48q0 -25 -17 -40.5t-41 -15.5t-41 16t-17 40q0 25 17 41t41 16t41 -16.5t17 -40.5z" />
    <glyph glyph-name="slash" unicode="/" horiz-adv-x="466" 
d="M13 -40l371 690h69l-371 -690h-69z" />
    <glyph glyph-name="zero" unicode="0" horiz-adv-x="612" 
d="M306 -12q-117 0 -185 81.5t-68 235.5t68 235.5t185 81.5t185 -81.5t68 -235.5t-68 -235.5t-185 -81.5zM306 559q-91 0 -134 -67t-43 -187t43 -187t134 -67t134 67t43 187t-43 187t-134 67z" />
    <glyph glyph-name="one" unicode="1" horiz-adv-x="362" 
d="M192 0v531q-28 -38 -69 -54t-92 -14v63q58 -2 99 20t70 64h67v-610h-75z" />
    <glyph glyph-name="two" unicode="2" horiz-adv-x="513" 
d="M44 0v57q166 105 247.5 194t81.5 177q0 60 -37 95.5t-115 35.5q-48 0 -90 -11.5t-74 -26.5v68q24 11 68 22t101 11q60 0 102.5 -16t69.5 -42.5t39 -61.5t12 -73q0 -55 -25 -105.5t-66 -96t-95.5 -86.5t-112.5 -77h309v-64h-415z" />
    <glyph glyph-name="three" unicode="3" horiz-adv-x="497" 
d="M36 88q34 -15 79.5 -26t99.5 -11q30 0 57 5.5t47.5 19t33 36.5t12.5 59t-16.5 58.5t-44.5 35.5t-65.5 17.5t-80.5 3.5v61q40 -1 75 4t60.5 18.5t40 36t14.5 56.5q0 97 -136 97q-42 0 -88 -11t-77 -26v65q28 13 74 24t101 11q42 0 78.5 -9t63.5 -27.5t43 -48t16 -71.5
q0 -63 -33 -98t-81 -49v-2q27 -4 51 -15.5t42 -30.5t28.5 -45t10.5 -59q0 -47 -16.5 -81t-45.5 -56t-69 -32t-87 -10q-61 0 -109.5 10t-77.5 24v66z" />
    <glyph glyph-name="four" unicode="4" horiz-adv-x="540" 
d="M344 0v127h-324v56l320 427h78v-421h94v-62h-94v-127h-74zM344 516l-241 -327h241v327z" />
    <glyph glyph-name="five" unicode="5" horiz-adv-x="525" 
d="M46 84q16 -6 36.5 -12t43 -10.5t45.5 -7.5t44 -3q94 0 136.5 32t42.5 104q0 69 -46 98t-134 29q-51 0 -89.5 -5t-64.5 -10l13 311h362v-64h-295l-8 -178q17 2 47 5t58 3q117 0 175 -51.5t58 -136.5q0 -99 -64 -149.5t-185 -50.5q-48 0 -96 9t-79 21v66z" />
    <glyph glyph-name="six" unicode="6" horiz-adv-x="558" 
d="M444 531q-21 10 -51 19.5t-68 9.5q-93 0 -145 -64.5t-54 -185.5q27 35 75.5 60t109.5 25q55 0 93.5 -16t63 -43.5t35.5 -63t11 -74.5q0 -49 -16 -88t-44.5 -66t-68.5 -41.5t-88 -14.5q-54 0 -99.5 18.5t-77.5 56.5t-50 96t-18 138q0 81 20 142t56 101.5t84.5 61
t105.5 20.5q39 0 71.5 -9.5t54.5 -18.5v-63zM125 240q3 -42 15.5 -76.5t34 -60t52 -39.5t69.5 -14q28 0 54 8t46.5 25.5t33 45t12.5 67.5q0 27 -6.5 52t-23 44.5t-43.5 31.5t-67 12q-55 0 -100.5 -25.5t-76.5 -70.5z" />
    <glyph glyph-name="seven" unicode="7" horiz-adv-x="474" 
d="M120 0l235 546h-331v64h413v-55l-239 -555h-78z" />
    <glyph glyph-name="eight" unicode="8" horiz-adv-x="550" 
d="M344 309q76 -14 116 -53t40 -99q0 -79 -58 -124t-170 -45q-50 0 -91 10.5t-70 31t-45.5 50t-16.5 67.5q0 61 38.5 101.5t123.5 58.5v2q-42 9 -70 25t-45 36.5t-24.5 44.5t-7.5 50q0 34 14.5 63t41.5 50t65 32.5t86 11.5q102 0 156.5 -42t54.5 -114q0 -58 -39 -96t-99 -59
v-2zM265 278q-30 -7 -56.5 -18.5t-45.5 -27t-30 -35t-11 -43.5q0 -57 41.5 -82.5t111.5 -25.5q25 0 52 5.5t49.5 18.5t37 34.5t14.5 53.5q0 28 -12 48t-33.5 34t-51.5 23t-66 15zM290 340q23 9 45 19.5t38.5 25.5t26.5 34.5t10 46.5q0 43 -35.5 71t-102.5 28
q-66 0 -101.5 -28.5t-35.5 -71.5q0 -57 40 -85t115 -40z" />
    <glyph glyph-name="nine" unicode="9" horiz-adv-x="558" 
d="M115 79q20 -11 50 -20.5t68 -9.5q93 0 145 64.5t54 185.5q-27 -34 -74.5 -59t-110.5 -25q-55 0 -93.5 16t-63 43t-35.5 62.5t-11 74.5q0 49 16 88.5t44.5 66.5t68.5 41.5t88 14.5q54 0 99.5 -18.5t77.5 -57t50 -96.5t18 -137q0 -81 -20 -142t-56 -101.5t-84.5 -61
t-105.5 -20.5q-39 0 -71.5 9t-53.5 19v63zM433 370q-3 41 -15.5 76t-34 60.5t-52 39.5t-69.5 14q-28 0 -54 -8t-46.5 -25.5t-33 -45t-12.5 -67.5q0 -27 7 -52.5t23 -45t43 -31t67 -11.5q55 0 101 25.5t76 70.5z" />
    <glyph glyph-name="colon" unicode=":" horiz-adv-x="264" 
d="M190 48q0 -25 -17 -40.5t-41 -15.5t-41 16t-17 40q0 25 17 41t41 16t41 -16.5t17 -40.5zM190 417q0 -25 -17 -40.5t-41 -15.5t-41 15.5t-17 40.5t17 40.5t41 15.5t41 -16t17 -40z" />
    <glyph glyph-name="semicolon" unicode=";" horiz-adv-x="264" 
d="M191 417q0 -25 -17 -40.5t-41 -15.5t-41 15.5t-17 40.5t17 40.5t41 15.5t41 -16t17 -40zM73 -105q17 19 33.5 45t16.5 53q-19 1 -35 16t-16 40q0 24 16 40t43 16q34 0 47.5 -20t13.5 -41q0 -26 -7.5 -50t-19.5 -45t-27 -38t-29 -29z" />
    <glyph glyph-name="less" unicode="&#x3c;" horiz-adv-x="522" 
d="M30 314v56l432 212v-62l-368 -178l368 -178v-62z" />
    <glyph glyph-name="equal" unicode="=" horiz-adv-x="522" 
d="M52 361v58h418v-58h-418zM52 191v59h418v-59h-418z" />
    <glyph glyph-name="greater" unicode="&#x3e;" horiz-adv-x="522" 
d="M60 102v62l367 178l-367 178v62l432 -212v-56z" />
    <glyph glyph-name="question" unicode="?" horiz-adv-x="438" 
d="M153 215q28 25 56 54.5t50 61t35.5 64.5t13.5 66q0 100 -110 100q-48 0 -89 -11t-70 -25v60q26 14 69.5 25.5t100.5 11.5q37 0 68.5 -9t55 -28t37 -48.5t13.5 -69.5q0 -39 -15.5 -74.5t-39 -67t-51.5 -59.5t-53 -51h-71zM242 48q0 -25 -17 -40.5t-41 -15.5t-41.5 16
t-17.5 40q0 25 17.5 41t41.5 16t41 -16.5t17 -40.5z" />
    <glyph glyph-name="at" unicode="@" horiz-adv-x="747" 
d="M699 136q-45 -72 -120 -110t-184 -38q-80 0 -144.5 20.5t-109.5 61t-69 100.5t-24 138q0 67 20.5 131t64 113.5t110 79.5t158.5 30q72 0 127 -22.5t92 -61.5t55.5 -90t18.5 -108q0 -48 -12.5 -91.5t-35.5 -77.5t-54.5 -54t-68.5 -20t-54.5 18.5t-18.5 45.5
q-18 -27 -49.5 -45.5t-76.5 -18.5q-60 0 -96.5 40t-36.5 112q0 41 11 80.5t34 70t58 49.5t82 19q45 0 72.5 -21.5t35.5 -46.5l15 59h58l-51 -256q-2 -11 -3 -22t1.5 -20t10.5 -15t24 -6q22 0 42.5 15.5t36 43t25 64.5t9.5 80q0 44 -14 87.5t-44 78.5t-78 56.5t-116 21.5
q-62 0 -109 -15.5t-81.5 -41t-57.5 -59t-37 -69.5t-19.5 -72t-5.5 -66q0 -52 14 -102.5t49.5 -90t95 -64t150.5 -24.5q50 0 90.5 9t72.5 25t55 36t38 43h44zM471 385q-3 13 -9.5 27t-17 24.5t-26 17.5t-37.5 7q-30 0 -52.5 -14t-38.5 -37t-24 -54t-8 -64q0 -54 23.5 -80.5
t57.5 -26.5q42 0 67 21t41 53z" />
    <glyph glyph-name="A" unicode="A" horiz-adv-x="648" 
d="M552 0l-65 150h-326l-65 -150h-80l266 610h84l266 -610h-80zM376 412l-51 131h-2l-51 -131l-84 -199h272z" />
    <glyph glyph-name="B" unicode="B" horiz-adv-x="595" 
d="M76 0v610h252q88 0 138 -35.5t50 -117.5q0 -48 -21 -81.5t-53 -54.5v-2q57 -17 83 -56t26 -96q0 -48 -18 -80t-48.5 -51.5t-71 -27.5t-86.5 -8h-251zM324 62q28 0 54.5 3.5t47.5 15t34 33t13 56.5q0 37 -12.5 59t-32.5 32.5t-45.5 13.5t-51.5 3h-178v-216h171zM332 340
q12 0 24 -0.5t23 -1.5q27 22 43 48.5t16 64.5q0 48 -24 72.5t-91 24.5h-170v-208h179z" />
    <glyph glyph-name="C" unicode="C" horiz-adv-x="617" 
d="M568 29q-30 -16 -77 -28.5t-114 -12.5q-69 0 -128.5 21t-103.5 61.5t-69 99.5t-25 135q0 75 25 133.5t69 99.5t104 62.5t131 21.5q66 0 107.5 -11t70.5 -25v-73q-37 22 -77.5 33t-97.5 11t-103.5 -16.5t-80 -48.5t-51.5 -79t-18 -108t18.5 -108t52.5 -79t80 -48.5
t102 -16.5q60 0 104 14.5t81 36.5v-75z" />
    <glyph glyph-name="D" unicode="D" horiz-adv-x="653" 
d="M291 65q117 0 175 58t58 187q0 125 -57.5 180t-171.5 55h-142v-480h138zM76 0v610h221q143 0 224 -76t81 -224q0 -156 -80.5 -233t-228.5 -77h-217z" />
    <glyph glyph-name="E" unicode="E" horiz-adv-x="515" 
d="M76 0v610h387v-65h-310v-202h283v-64h-283v-214h310v-65h-387z" />
    <glyph glyph-name="F" unicode="F" horiz-adv-x="501" 
d="M153 249v-249h-77v610h387v-65h-310v-232h290v-64h-290z" />
    <glyph glyph-name="G" unicode="G" horiz-adv-x="669" 
d="M529 304h76v-268q-40 -20 -97.5 -34t-126.5 -14q-70 0 -130 21t-104.5 61.5t-70 98.5t-25.5 133q0 76 26 135.5t72 100.5t109 62.5t137 21.5q67 0 113 -11.5t77 -26.5v-72q-38 21 -84.5 33t-103.5 12q-59 0 -108 -16t-84 -48t-55 -79t-20 -110q0 -62 19 -108.5t52.5 -78
t80.5 -47.5t103 -16q48 0 81 7t63 18v225z" />
    <glyph glyph-name="H" unicode="H" horiz-adv-x="666" 
d="M512 0v278h-358v-278h-78v610h78v-267h358v267h78v-610h-78z" />
    <glyph glyph-name="I" unicode="I" horiz-adv-x="234" 
d="M78 0v610h78v-610h-78z" />
    <glyph glyph-name="J" unicode="J" horiz-adv-x="359" 
d="M207 610h78v-439q0 -98 -43 -139.5t-126 -41.5q-20 0 -45 3.5t-43 8.5v65q14 -5 33.5 -9t45.5 -4q24 0 42.5 5t31 18.5t19.5 37t7 61.5v434z" />
    <glyph glyph-name="K" unicode="K" horiz-adv-x="540" 
d="M429 0l-277 316v-316h-76v610h76v-273l271 273h88l-279 -282l288 -328h-91z" />
    <glyph glyph-name="L" unicode="L" horiz-adv-x="475" 
d="M76 0v610h77v-545h294v-65h-371z" />
    <glyph glyph-name="M" unicode="M" horiz-adv-x="816" 
d="M684 0l-30 345l-9 176h-2l-58 -166l-140 -355h-74l-140 355l-58 166h-2l-9 -176l-30 -345h-77l60 610h89l159 -402l44 -138h2l44 138l159 402h89l60 -610h-77z" />
    <glyph glyph-name="N" unicode="N" horiz-adv-x="672" 
d="M516 0l-239 327q-36 48 -69.5 95t-59.5 92h-2q5 -42 5.5 -84.5t0.5 -85.5v-344h-76v610h80l239 -327q36 -48 69.5 -95t59.5 -92h2q-5 42 -5.5 84.5t-0.5 85.5v344h76v-610h-80z" />
    <glyph glyph-name="O" unicode="O" horiz-adv-x="752" 
d="M376 53q55 0 100 16.5t77.5 48t50.5 78.5t18 109q0 61 -18 108t-50.5 79t-77.5 48.5t-100 16.5t-100 -16.5t-77.5 -48.5t-50.5 -79t-18 -108q0 -62 18 -109t50.5 -78.5t77.5 -48t100 -16.5zM701 305q0 -75 -25.5 -134t-69.5 -99.5t-103.5 -62t-126.5 -21.5
q-68 0 -127 21.5t-103 62t-69.5 99.5t-25.5 134t25.5 134t69.5 99.5t103 62t127 21.5q67 0 126.5 -21.5t103.5 -62t69.5 -99.5t25.5 -134z" />
    <glyph glyph-name="P" unicode="P" horiz-adv-x="571" 
d="M300 291q75 0 114 29t39 99q0 69 -39 98t-114 29h-147v-255h147zM76 0v610h224q111 0 170 -45.5t59 -145.5t-59 -146t-170 -46h-147v-227h-77z" />
    <glyph glyph-name="Q" unicode="Q" horiz-adv-x="752" 
d="M679 -155q-19 -3 -36 -4t-34 -1q-81 1 -138 36t-99 113q-67 1 -125.5 22.5t-102 62t-68.5 98.5t-25 133t25.5 134t69.5 99.5t103 62t127 21.5t127.5 -21.5t103.5 -62t69 -99.5t25 -134q0 -65 -19.5 -118t-54.5 -92.5t-83 -64.5t-104 -34q26 -42 68.5 -65t105.5 -24
q16 0 32 1.5t33 6.5v-70zM376 54q55 0 100 16.5t77 48t50 78.5t18 108t-18 108.5t-50 79t-77 48t-100 16.5t-100 -16.5t-77.5 -48t-50.5 -79t-18 -108.5t18 -108t50.5 -78.5t77.5 -48t100 -16.5z" />
    <glyph glyph-name="R" unicode="R" horiz-adv-x="587" 
d="M473 0l-52 169q-6 21 -15 37.5t-24 28.5t-37 18t-54 6h-138v-259h-77v610h220q114 0 172 -42t58 -127q0 -67 -35 -105t-89 -49v-2q33 -10 57.5 -34t38.5 -69l55 -182h-80zM293 323q77 0 117 25.5t40 90.5q0 63 -39.5 85t-117.5 22h-140v-223h140z" />
    <glyph glyph-name="S" unicode="S" horiz-adv-x="517" 
d="M46 99q39 -20 87.5 -34t108.5 -14q29 0 56 4t47.5 15.5t33 30.5t12.5 49q0 27 -13.5 46.5t-36 35t-51.5 28.5t-60 27q-30 13 -61 28.5t-57 36.5t-42.5 50t-16.5 68q0 40 15 68.5t43 47t66 27.5t85 9q52 0 94.5 -9.5t71.5 -21.5v-66q-35 14 -74 24t-87 10
q-66 0 -101.5 -20t-35.5 -68q0 -24 12.5 -42.5t33.5 -33t48.5 -27.5t57.5 -27t63 -30t60.5 -37.5t45.5 -51.5t18 -72t-17 -72.5t-47 -50.5t-70.5 -29.5t-87.5 -9.5q-67 0 -118.5 14t-82.5 31v66z" />
    <glyph glyph-name="T" unicode="T" horiz-adv-x="558" 
d="M240 0v546l-215 -1v65h508v-65l-215 1v-546h-78z" />
    <glyph glyph-name="U" unicode="U" horiz-adv-x="692" 
d="M541 610h77v-349q0 -150 -72 -213q-35 -32 -86 -46t-114 -14t-113.5 14t-85.5 46q-73 64 -73 213v349h78v-342q0 -114 47 -164t147 -50t147.5 50t47.5 164v342z" />
    <glyph glyph-name="V" unicode="V" horiz-adv-x="620" 
d="M270 0l-252 610h81l158 -387l52 -154h2l52 154l158 387h81l-252 -610h-80z" />
    <glyph glyph-name="W" unicode="W" horiz-adv-x="954" 
d="M652 0l-142 417l-32 118h-2l-32 -118l-142 -417h-73l-207 610h80l125 -378l39 -148h2l42 148l129 378h76l129 -378l42 -148h2l39 148l125 378h80l-207 -610h-73z" />
    <glyph glyph-name="X" unicode="X" horiz-adv-x="634" 
d="M527 0l-210 263l-210 -263h-87l253 313l-239 297h87l196 -246l196 246h87l-240 -297l254 -313h-87z" />
    <glyph glyph-name="Y" unicode="Y" horiz-adv-x="610" 
d="M266 0v236l-246 374h81l129 -200l73 -121h4l73 121l129 200h81l-246 -374v-236h-78z" />
    <glyph glyph-name="Z" unicode="Z" horiz-adv-x="560" 
d="M45 0v57l363 491l-350 -2v64h437v-57l-363 -490l380 1v-64h-467z" />
    <glyph glyph-name="bracketleft" unicode="[" horiz-adv-x="284" 
d="M94 -136v798h160v-58h-89v-681h89v-59h-160z" />
    <glyph glyph-name="backslash" unicode="\" horiz-adv-x="466" 
d="M384 -40l-371 690h69l371 -690h-69z" />
    <glyph glyph-name="bracketright" unicode="]" horiz-adv-x="284" 
d="M30 -136v59h89v681h-89v58h160v-798h-160z" />
    <glyph glyph-name="asciicircum" unicode="^" horiz-adv-x="518" 
d="M405 252l-146 291l-146 -291h-68l183 358h62l183 -358h-68z" />
    <glyph glyph-name="underscore" unicode="_" horiz-adv-x="360" 
d="M0 -101v40h360v-40h-360z" />
    <glyph glyph-name="grave" unicode="`" horiz-adv-x="326" 
d="M181 512l-115 138h88l80 -138h-53z" />
    <glyph glyph-name="a" unicode="a" horiz-adv-x="518" 
d="M374 210q-26 7 -60 12.5t-66 5.5q-64 0 -98.5 -22t-34.5 -73q0 -45 29 -66t77 -21q60 0 96 25t57 67v72zM387 0l-8 77h-2q-19 -33 -61.5 -60.5t-107.5 -27.5q-75 0 -119.5 36t-44.5 105q0 38 15 66t41 47t61.5 28t77.5 9q40 0 76 -6.5t59 -13.5v36q0 55 -32.5 82
t-95.5 27q-46 0 -86.5 -11.5t-74.5 -28.5v62q32 14 73.5 24.5t95.5 10.5q41 0 76.5 -9t61.5 -29.5t41 -54t15 -82.5v-287h-61z" />
    <glyph glyph-name="b" unicode="b" horiz-adv-x="564" 
d="M74 0v650h76v-271h2q26 33 67 58t101 25q96 0 145 -63.5t49 -168.5q0 -62 -15 -107.5t-41.5 -75.5t-62 -44.5t-77.5 -14.5q-60 0 -104 25.5t-68 63.5h-2l-8 -77h-62zM150 137q21 -35 62 -62t94 -27q27 0 51 10.5t42 32.5t28.5 56t10.5 82q0 36 -7.5 68t-24 55t-42 36.5
t-62.5 13.5q-49 0 -86.5 -24t-65.5 -62v-179z" />
    <glyph glyph-name="c" unicode="c" horiz-adv-x="491" 
d="M445 23q-29 -17 -63.5 -26t-85.5 -9q-56 0 -101.5 18t-78 49.5t-50.5 75.5t-18 95q0 50 17.5 93.5t50 75t77.5 49.5t101 18q51 0 86 -10t61 -24v-63q-29 18 -63.5 28.5t-77.5 10.5q-40 0 -72.5 -13t-55 -37t-35 -56.5t-12.5 -71.5t12.5 -72t35.5 -57t55.5 -37.5
t72.5 -13.5q78 0 144 39v-62z" />
    <glyph glyph-name="d" unicode="d" horiz-adv-x="564" 
d="M429 0l-8 77h-2q-22 -36 -61.5 -62.5t-97.5 -26.5q-44 0 -82 14t-66.5 43t-45 74.5t-16.5 107.5q0 52 14.5 95.5t41.5 74.5t66 48t88 17q28 0 51 -6.5t42 -17t34 -23t26 -25.5h2v260h75v-650h-61zM415 327q-25 33 -60.5 53.5t-83.5 20.5q-37 0 -64 -13.5t-45 -37
t-27 -55.5t-9 -68q0 -47 12 -81t32 -56t46 -32t55 -10q52 0 86 26.5t58 63.5v189z" />
    <glyph glyph-name="e" unicode="e" horiz-adv-x="535" 
d="M462 28q-36 -19 -78 -29.5t-87 -10.5q-61 0 -107.5 18t-78 50t-47.5 75.5t-16 95.5q0 51 15.5 94t45 74.5t73 49t99.5 17.5q100 0 155 -56t55 -156q0 -11 -2 -23.5t-5 -24.5h-364q4 -72 51 -114.5t132 -42.5q42 0 79.5 12t79.5 35v-64zM424 253q-1 81 -40 117t-103 36
q-72 0 -113.5 -43t-47.5 -110h304z" />
    <glyph glyph-name="f" unicode="f" horiz-adv-x="363" 
d="M107 0v393h-84v57h84v45q0 85 42 126t120 41q23 0 46 -4t38 -10v-60q-14 5 -32 9t-40 4q-51 0 -75.5 -23.5t-24.5 -85.5v-42h154v-57h-152v-393h-76z" />
    <glyph glyph-name="g" unicode="g" horiz-adv-x="562" 
d="M414 318q-24 35 -60 59.5t-84 24.5q-37 0 -64 -13.5t-45 -37t-26.5 -55.5t-8.5 -68q0 -47 11.5 -81t31.5 -56t46 -32t55 -10q51 0 86 26t58 63v180zM415 74q-21 -35 -60.5 -60.5t-96.5 -25.5q-42 0 -80 14t-66.5 43.5t-45 75t-16.5 107.5q0 52 14 95t41 74t66 48t89 17
q28 0 52 -7t43.5 -19t34.5 -27t25 -30h2l7 71h66v-457q0 -57 -17 -96t-47 -64t-72.5 -36t-93.5 -11q-52 0 -97 10t-80 27v66q36 -19 80 -31.5t95 -12.5q36 0 65 7t50 23.5t32 44.5t11 71v40t1 43h-2z" />
    <glyph glyph-name="h" unicode="h" horiz-adv-x="578" 
d="M432 0v275q0 66 -28.5 95.5t-82.5 29.5q-57 0 -97.5 -24t-73.5 -59v-317h-76v650h76v-273q15 15 34.5 30.5t43 27.5t51 19.5t59.5 7.5q78 0 124 -44t46 -134v-284h-76z" />
    <glyph glyph-name="i" unicode="i" horiz-adv-x="224" 
d="M74 0v450h76v-450h-76zM167 580q0 -22 -13.5 -36t-41.5 -14t-41.5 14t-13.5 36q0 23 13.5 37t41.5 14t41.5 -14t13.5 -37z" />
    <glyph glyph-name="j" unicode="j" horiz-adv-x="234" 
d="M-33 -161q12 -2 23 -2.5t25 -0.5q38 0 53.5 17.5t15.5 59.5v537h75v-492q0 -33 -2.5 -65.5t-14 -58.5t-36 -42t-69.5 -16q-17 0 -35.5 2.5t-34.5 7.5v53zM176 580q0 -22 -13.5 -36t-41.5 -14t-41.5 14t-13.5 36q0 23 13.5 37t41.5 14t41.5 -14t13.5 -37z" />
    <glyph glyph-name="k" unicode="k" horiz-adv-x="482" 
d="M375 0l-225 235v-235h-76v650h76v-399l210 199h88l-218 -203l234 -247h-89z" />
    <glyph glyph-name="l" unicode="l" horiz-adv-x="222" 
d="M74 0v650h74v-650h-74z" />
    <glyph glyph-name="m" unicode="m" horiz-adv-x="853" 
d="M708 0v283q0 60 -20.5 88.5t-71.5 28.5q-48 0 -85 -24t-67 -59q0 -6 0.5 -12t0.5 -13v-292h-75v283q0 60 -20.5 88.5t-71.5 28.5q-48 0 -84.5 -23.5t-65.5 -58.5v-318h-76v450h64l8 -77h1q26 35 69 62t100 27q108 0 140 -95q13 18 32 35.5t42.5 30.5t49.5 21t53 8
q152 0 152 -174v-288h-75z" />
    <glyph glyph-name="n" unicode="n" horiz-adv-x="574" 
d="M429 0v275q0 66 -27.5 95.5t-81.5 29.5q-57 0 -97.5 -24.5t-74.5 -60.5v-315h-76v450h64l8 -77h2q15 16 34.5 32t43.5 28.5t52 20.5t60 8q78 0 123 -44t45 -134v-284h-75z" />
    <glyph glyph-name="o" unicode="o" horiz-adv-x="586" 
d="M538 226q0 -50 -17 -93.5t-49 -75.5t-77.5 -50.5t-101.5 -18.5t-101.5 18.5t-77.5 50.5t-49 75.5t-17 93.5t17 93t49 75t77.5 50t101.5 18t101.5 -18t77.5 -50t49 -75t17 -93zM293 46q38 0 69 13.5t53 37.5t34 57t12 72t-12 71.5t-34 56.5t-53 37t-69 13t-69 -13t-53 -37
t-34 -56.5t-12 -71.5t12 -72t34 -57t53 -37.5t69 -13.5z" />
    <glyph glyph-name="p" unicode="p" horiz-adv-x="562" 
d="M72 -215v665h66l8 -75h2q33 43 77 65t95 22q48 0 84 -19.5t60 -52t36 -74t12 -85.5q0 -62 -15 -108t-41 -76t-61.5 -44.5t-75.5 -14.5q-61 0 -103.5 23.5t-68.5 61.5h-2q2 -20 2 -39t1 -42v-207h-76zM148 137q21 -35 62 -62t94 -27q27 0 51 10.5t42 33t28.5 56.5t10.5 82
q0 36 -7.5 67.5t-24 55t-42 36.5t-62.5 13q-49 0 -87 -25t-65 -63v-177z" />
    <glyph glyph-name="q" unicode="q" horiz-adv-x="563" 
d="M415 -215v202q0 20 0.5 42.5t2.5 42.5h-2q-21 -34 -60.5 -59t-93.5 -25q-43 0 -81.5 14t-67.5 43.5t-46 75t-17 107.5q0 52 14.5 95t41.5 74t66 48t88 17q31 0 55.5 -7.5t43.5 -19t33.5 -26t25.5 -28.5h2l6 69h65v-665h-76zM415 320q-25 33 -59 57t-85 24
q-37 0 -64 -13.5t-45 -36.5t-27 -55t-9 -68q0 -47 12 -81.5t32 -56.5t46.5 -32.5t55.5 -10.5q51 0 85.5 26t57.5 63v184z" />
    <glyph glyph-name="r" unicode="r" horiz-adv-x="378" 
d="M72 0v450h62l11 -110h2q11 22 27 43.5t37 38t47 27t57 10.5q8 0 20 -1t21 -4v-74q-22 5 -43 5q-29 0 -54 -9.5t-45.5 -25t-37 -35t-28.5 -40.5v-275h-76z" />
    <glyph glyph-name="s" unicode="s" horiz-adv-x="422" 
d="M42 77q29 -12 66.5 -21.5t79.5 -9.5q118 0 118 64q0 20 -7.5 33t-22.5 23t-38 18.5t-54 19.5q-26 10 -51.5 21t-45 26.5t-31.5 37.5t-12 54q0 55 41.5 87t129.5 32q42 0 76 -8.5t57 -19.5v-59q-23 11 -54 20.5t-69 9.5q-110 0 -110 -60q0 -19 8.5 -31.5t23.5 -22
t35.5 -17.5t44.5 -17q27 -9 53.5 -20t48.5 -27t35.5 -40t13.5 -58q0 -32 -13.5 -55.5t-37.5 -38.5t-57 -22.5t-72 -7.5q-48 0 -89.5 8.5t-66.5 19.5v61z" />
    <glyph glyph-name="t" unicode="t" horiz-adv-x="393" 
d="M359 7q-17 -8 -41.5 -13.5t-59.5 -5.5q-82 0 -116.5 38.5t-34.5 120.5v246h-84v57h85l20 142h53v-142h174v-57h-174v-240q0 -59 21 -82t67 -23q53 0 90 19v-60z" />
    <glyph glyph-name="u" unicode="u" horiz-adv-x="559" 
d="M424 0l-8 77h-2q-14 -17 -31.5 -33t-39 -28.5t-48 -20t-57.5 -7.5q-78 0 -123 41t-45 129v292h75v-282q0 -64 27.5 -91t79.5 -27q57 0 95.5 26.5t64.5 59.5v314h75v-450h-63z" />
    <glyph glyph-name="v" unicode="v" horiz-adv-x="488" 
d="M207 0l-187 450h78l95 -242l50 -144h2l50 144l95 242h78l-187 -450h-74z" />
    <glyph glyph-name="w" unicode="w" horiz-adv-x="748" 
d="M497 0l-94 281q-8 26 -14.5 51.5t-13.5 51.5h-2q-7 -26 -13.5 -51.5t-14.5 -51.5l-94 -281h-71l-156 450h74l89 -276l27 -106h2l29 106l94 276h70l94 -276l29 -106h2l27 106l89 276h74l-156 -450h-71z" />
    <glyph glyph-name="x" unicode="x" horiz-adv-x="502" 
d="M400 0l-149 186l-149 -186h-85l192 232l-180 218h84l138 -173l138 173h84l-181 -218l193 -232h-85z" />
    <glyph glyph-name="y" unicode="y" horiz-adv-x="501" 
d="M217 0l-198 450h75l107 -255l51 -128h2l53 143l96 240h78l-237 -555q-12 -29 -24.5 -51.5t-28 -38t-36 -23.5t-48.5 -8q-23 0 -42 5.5t-33 11.5v61q13 -6 29.5 -13t40.5 -7q29 0 46 18.5t32 56.5z" />
    <glyph glyph-name="z" unicode="z" horiz-adv-x="460" 
d="M38 0v52l278 339l-265 -1v60h354v-52l-279 -339l292 1v-60h-380z" />
    <glyph glyph-name="braceleft" unicode="{" horiz-adv-x="284" 
d="M262 -125q-21 -8 -46 -8q-51 0 -78.5 31t-27.5 82v166q0 52 -20 72.5t-52 22.5v48q32 2 52 22.5t20 72.5v166q0 51 27.5 82t78.5 31q25 0 46 -8v-52q-21 6 -36 6q-26 0 -37.5 -14.5t-11.5 -58.5v-157q0 -52 -21 -77t-53 -37q32 -12 53 -37t21 -77v-157q0 -44 11.5 -58.5
t37.5 -14.5q15 0 36 6v-52z" />
    <glyph glyph-name="bar" unicode="|" horiz-adv-x="242" 
d="M88 -215v865h66v-865h-66z" />
    <glyph glyph-name="braceright" unicode="}" horiz-adv-x="284" 
d="M22 -73q21 -6 36 -6q26 0 37.5 14.5t11.5 58.5v157q0 52 21 77t53 37q-32 12 -53 37t-21 77v157q0 44 -11.5 58.5t-37.5 14.5q-15 0 -36 -6v52q21 8 46 8q51 0 78.5 -31t27.5 -82v-166q0 -52 20 -72.5t52 -22.5v-48q-32 -2 -52 -22.5t-20 -72.5v-166q0 -51 -27.5 -82
t-78.5 -31q-25 0 -46 8v52z" />
    <glyph glyph-name="asciitilde" unicode="~" horiz-adv-x="460" 
d="M411 288q-54 -45 -100 -45q-26 0 -46.5 9.5t-38.5 20.5t-36.5 20.5t-40.5 9.5q-29 0 -51.5 -14t-48.5 -39v71q18 15 42 29.5t58 14.5q26 0 46.5 -9t38.5 -20t36.5 -20t41.5 -9q48 0 99 52v-71z" />
    <glyph glyph-name="uni007F" horiz-adv-x="450" 
 />
    <glyph glyph-name="nonbreakingspace" unicode="&#xa0;" horiz-adv-x="259" 
 />
    <glyph glyph-name="exclamdown" unicode="&#xa1;" horiz-adv-x="244" 
d="M80 -160l13 395h59l12 -395h-84zM122 346q-24 0 -41 15.5t-17 40.5t17 40.5t41 15.5t41 -15.5t17 -40.5t-17 -40.5t-41 -15.5z" />
    <glyph glyph-name="cent" unicode="&#xa2;" horiz-adv-x="612" 
d="M334 -100v90q-56 4 -99.5 23.5t-74 50.5t-46.5 72.5t-16 89.5q0 47 16 88t46.5 72.5t74 51t99.5 23.5v89h54v-88q43 -2 77.5 -12.5t58.5 -23.5v-60q-29 18 -68.5 28.5t-84.5 10.5q-47 0 -83.5 -13.5t-61.5 -37t-38 -56.5t-13 -72t13.5 -72t38.5 -57t61.5 -37.5
t83.5 -13.5q42 0 82.5 9.5t73.5 29.5v-60q-26 -15 -60.5 -24.5t-79.5 -11.5v-89h-54z" />
    <glyph glyph-name="sterling" unicode="&#xa3;" horiz-adv-x="612" 
d="M88 0v59q27 18 43.5 35t26 35t13 38t3.5 43v114h-86v49h86v55q0 46 15.5 82t44 61t68.5 37.5t88 12.5q37 0 71 -7t54 -16v-62q-17 8 -48 15.5t-66 7.5q-70 0 -111 -33t-41 -99v-54h176v-49h-176v-116q0 -51 -21 -86t-52 -58h359v-64h-447z" />
    <glyph glyph-name="currency" unicode="&#xa4;" horiz-adv-x="560" 
d="M460 85l-62 63q-27 -19 -55.5 -29t-62.5 -10t-62.5 10t-55.5 29l-62 -63l-41 40l63 63q-19 25 -29.5 55.5t-10.5 63.5q0 65 39 118l-62 62l41 40l62 -62q25 19 55 29.5t63 10.5t63 -10.5t55 -29.5l62 62l41 -40l-62 -62q39 -53 39 -118q0 -33 -10.5 -63.5t-29.5 -55.5
l63 -63zM280 454q-30 0 -56.5 -11.5t-46 -32t-30.5 -47t-11 -56.5t11 -56.5t30.5 -47t46 -32t56.5 -11.5t56.5 11.5t46 32t30.5 47t11 56.5t-11 56.5t-30.5 47t-46 32t-56.5 11.5z" />
    <glyph glyph-name="yen" unicode="&#xa5;" horiz-adv-x="612" 
d="M345 151v-151h-78v151h-155v49h155v61h-155v49h123l-200 300h80l189 -303h4l189 303h80l-201 -300h124v-49h-155v-61h155v-49h-155z" />
    <glyph glyph-name="brokenbar" unicode="&#xa6;" horiz-adv-x="256" 
d="M94 296v354h68v-354h-68zM94 -215v354h68v-354h-68z" />
    <glyph glyph-name="section" unicode="&#xa7;" horiz-adv-x="612" 
d="M128 -132q30 -13 64.5 -21t73.5 -8q28 0 54 5t45.5 14.5t31 24t11.5 32.5q0 33 -24.5 55t-60.5 40t-79 35t-79 41t-60.5 57.5t-24.5 83.5q0 52 32.5 96t87.5 73q-29 22 -49 51t-20 74q0 34 15.5 60t42.5 43t62.5 25.5t74.5 8.5q42 0 84 -5t69 -16v-69q-31 12 -68.5 20
t-80.5 8q-54 0 -91.5 -19t-37.5 -57q0 -21 11.5 -37.5t30 -30t43 -25.5t50.5 -24q30 -13 64 -29.5t63 -39t48 -52.5t19 -70q0 -28 -11 -53.5t-29 -47.5t-39.5 -40.5t-42.5 -32.5q38 -28 54.5 -58.5t16.5 -65.5t-17.5 -60.5t-46.5 -42.5t-66 -25.5t-76 -8.5q-91 0 -145 22v69
zM351 70q16 12 35.5 27t35.5 32t27 37t11 42q0 28 -15 49t-39 37.5t-53.5 29.5t-57.5 25l-36 16q-48 -23 -78.5 -57t-30.5 -79q0 -28 15 -49t39 -37.5t53 -30t57 -25.5z" />
    <glyph glyph-name="dieresis" unicode="&#xa8;" horiz-adv-x="326" 
d="M103 580q0 -21 -12.5 -34.5t-38.5 -13.5t-39 13.5t-13 34.5q0 22 13 35.5t39 13.5t38.5 -13.5t12.5 -35.5zM325 580q0 -21 -13 -34.5t-39 -13.5t-39 13.5t-13 34.5q0 22 13 35.5t39 13.5t39 -13.5t13 -35.5z" />
    <glyph glyph-name="copyright" unicode="&#xa9;" horiz-adv-x="732" 
d="M682 303q0 -66 -24 -122.5t-66.5 -98.5t-100.5 -65.5t-125 -23.5q-68 0 -125.5 23.5t-100 65.5t-66.5 98.5t-24 122.5t24 122.5t66.5 98.5t100 65.5t125.5 23.5q67 0 125 -23.5t100.5 -65.5t66.5 -98.5t24 -122.5zM639 303q0 58 -20 108t-56 86t-86.5 56.5t-110.5 20.5
t-110 -20.5t-86 -56.5t-56 -86t-20 -108q0 -59 20 -108.5t56 -85.5t86 -56t110 -20t110 20t86 56t56.5 85.5t20.5 108.5zM502 139q-23 -14 -50.5 -21t-69.5 -7q-45 0 -82 14.5t-63.5 40t-41 60.5t-14.5 77q0 40 14.5 75t41 60.5t63.5 40t82 14.5q40 0 68 -8t49 -19v-53
q-24 14 -51.5 23.5t-62.5 9.5q-66 0 -102.5 -40t-36.5 -103q0 -32 10 -58.5t28 -45.5t44 -30t58 -11t61 8.5t55 24.5v-52z" />
    <glyph glyph-name="ordfeminine" unicode="&#xaa;" horiz-adv-x="400" 
d="M279 433q-20 5 -43 9.5t-45 4.5q-45 0 -69 -17t-24 -50q0 -29 20.5 -44t51.5 -15q39 0 65.5 18t43.5 47v47zM286 280l-6 50h-2q-16 -22 -45 -40t-74 -18q-57 0 -90.5 27t-33.5 78q0 28 11 49.5t30.5 35.5t46 21t57.5 7q30 0 55 -3.5t42 -8.5v20q0 40 -23 57.5t-66 17.5
q-31 0 -63.5 -7t-59.5 -20v50q24 12 57.5 18.5t69.5 6.5q31 0 58.5 -7t47.5 -22.5t32 -40.5t12 -61v-210h-56z" />
    <glyph glyph-name="guillemotleft" unicode="&#xab;" horiz-adv-x="458" 
d="M163 62l-139 209l139 212h73l-139 -211l139 -210h-73zM342 62l-138 209l138 212h74l-140 -211l140 -210h-74z" />
    <glyph glyph-name="logicalnot" unicode="&#xac;" horiz-adv-x="540" 
d="M412 174v203h-352v61h418v-264h-66z" />
    <glyph glyph-name="hypen" unicode="&#xad;" horiz-adv-x="326" 
d="M35 272v65h256v-65h-256z" />
    <glyph glyph-name="registered" unicode="&#xae;" horiz-adv-x="732" 
d="M682 303q0 -66 -24 -122.5t-66.5 -98.5t-100.5 -65.5t-125 -23.5q-68 0 -125.5 23.5t-100 65.5t-66.5 98.5t-24 122.5t24 122.5t66.5 98.5t100 65.5t125.5 23.5q67 0 125 -23.5t100.5 -65.5t66.5 -98.5t24 -122.5zM639 303q0 58 -20 108t-56 86t-86.5 56.5t-110.5 20.5
t-110 -20.5t-86 -56.5t-56 -86t-20 -108q0 -59 20 -108.5t56 -85.5t86 -56t110 -20t110 20t86 56t56.5 85.5t20.5 108.5zM464 125l-31 102q-4 12 -8.5 21t-11.5 15t-18.5 9t-29.5 3h-69v-150h-59v364h137q67 0 100.5 -26.5t33.5 -74.5q0 -39 -21 -60.5t-49 -30.5v-1
q23 -8 34 -21.5t19 -39.5l35 -110h-62zM336 323q24 0 44.5 1t35.5 7t23.5 19t8.5 37q0 19 -5.5 30t-18 17t-34.5 7.5t-55 1.5h-39v-120h40z" />
    <glyph glyph-name="macron" unicode="&#xaf;" horiz-adv-x="326" 
d="M24 538v55h278v-55h-278z" />
    <glyph glyph-name="degree" unicode="&#xb0;" horiz-adv-x="322" 
d="M284 545q0 -51 -34.5 -84.5t-88.5 -33.5t-88.5 33.5t-34.5 84.5q0 25 9 46.5t25.5 37t39 24t49.5 8.5t49.5 -8.5t39 -24t25.5 -37t9 -46.5zM236 544q0 33 -20.5 54t-54.5 21t-54.5 -21t-20.5 -54q0 -32 20.5 -53t54.5 -21t54.5 21t20.5 53z" />
    <glyph glyph-name="plusminus" unicode="&#xb1;" horiz-adv-x="522" 
d="M227 92v197h-187v61h187v196h68v-196h187v-61h-187v-197h-68zM40 0v52h442v-52h-442z" />
    <glyph glyph-name="twosuperior" unicode="&#xb2;" horiz-adv-x="371" 
d="M44 287v43q100 57 152 110t52 105q0 32 -22.5 51t-68.5 19q-27 0 -55 -7.5t-49 -16.5v47q16 7 45 14.5t63 7.5q39 0 66 -9.5t44.5 -25t25 -36.5t7.5 -44q0 -32 -14 -61t-38 -55.5t-55.5 -50t-66.5 -44.5h181v-47h-267z" />
    <glyph glyph-name="threesuperior" unicode="&#xb3;" horiz-adv-x="360" 
d="M41 351q22 -10 52.5 -17t61.5 -7q19 0 36 3t30.5 10.5t21.5 20t8 32.5q0 19 -10 32t-27.5 20t-41.5 9.5t-52 1.5v41q55 -1 87.5 12t32.5 52q0 53 -84 53q-25 0 -56 -6.5t-52 -16.5v46q17 8 48.5 15.5t63.5 7.5q57 0 95 -22t38 -73q0 -35 -18.5 -55.5t-45.5 -30.5v-1
q34 -7 55.5 -30t21.5 -58q0 -58 -40 -83.5t-104 -25.5q-38 0 -70 6.5t-51 14.5v49z" />
    <glyph glyph-name="acute" unicode="&#xb4;" horiz-adv-x="326" 
d="M92 512l80 138h88l-115 -138h-53z" />
    <glyph glyph-name="mu" unicode="&#xb5;" horiz-adv-x="560" 
d="M72 -215v665h76v-314q25 -33 64 -59.5t96 -26.5q51 0 78.5 27t27.5 91v282h76v-292q0 -88 -45 -129t-123 -41q-64 0 -106 26.5t-68 60.5h-2q1 -20 1.5 -41t0.5 -42v-207h-76z" />
    <glyph glyph-name="paragraph" unicode="&#xb6;" horiz-adv-x="553" 
d="M408 -215v797h-86v-797h-60v438h-2q-47 0 -88 17t-71 46t-47.5 68t-17.5 83t17.5 83t47.5 68t71 45.5t88 16.5h208v-865h-60z" />
    <glyph glyph-name="periodcentered" unicode="&#xb7;" horiz-adv-x="230" 
d="M115 348q26 0 42.5 -16t16.5 -41t-16.5 -41.5t-42.5 -16.5t-42.5 16.5t-16.5 41.5t16.5 41t42.5 16z" />
    <glyph glyph-name="cedilla" unicode="&#xb8;" horiz-adv-x="326" 
d="M109 -143q11 -3 25 -6t34 -3q23 0 40 7.5t17 28.5q0 24 -27 33t-65 10l16 80l39 -4q0 -8 -1.5 -23.5t-2.5 -23.5q19 -1 37 -5.5t32 -13.5t22 -23.5t8 -35.5q0 -23 -10 -38t-25.5 -24t-35.5 -13t-39 -4q-22 0 -37 2.5t-27 5.5v50z" />
    <glyph glyph-name="onesuperior" unicode="&#xb9;" horiz-adv-x="261" 
d="M124 287v301q-17 -23 -42 -31.5t-59 -7.5v50q40 -2 65.5 13t43.5 41h48v-366h-56z" />
    <glyph glyph-name="ordmasculine" unicode="&#xba;" horiz-adv-x="423" 
d="M392 447q0 -37 -12.5 -69t-36 -55.5t-56.5 -37t-75 -13.5t-75.5 13.5t-57 37t-36 55.5t-12.5 69q0 36 12.5 68t36 55.5t57 37t75.5 13.5t75 -13.5t56.5 -37t36 -55.5t12.5 -68zM212 320q51 0 81.5 35t30.5 92q0 55 -30.5 90.5t-81.5 35.5q-52 0 -83 -35.5t-31 -90.5
q0 -57 31 -92t83 -35z" />
    <glyph glyph-name="guillemotright" unicode="&#xbb;" horiz-adv-x="458" 
d="M222 62l140 210l-140 211h73l139 -212l-139 -209h-73zM42 62l139 210l-139 211h73l139 -212l-139 -209h-73z" />
    <glyph glyph-name="onequarter" unicode="&#xbc;" horiz-adv-x="759" 
d="M190 0h-62l458 610h59zM611 0v74h-200v36l203 256h52v-249h60v-43h-60v-74h-55zM611 297l-139 -180h139v180zM164 244v301q-17 -23 -42 -31.5t-59 -7.5v50q40 -2 65.5 13t43.5 41h48v-366h-56z" />
    <glyph glyph-name="onehalf" unicode="&#xbd;" horiz-adv-x="759" 
d="M160 0h-62l458 610h59zM164 244v301q-17 -23 -42 -31.5t-59 -7.5v50q40 -2 65.5 13t43.5 41h48v-366h-56zM441 0v43q100 57 152 110t52 105q0 32 -22.5 51t-68.5 19q-27 0 -55 -7.5t-49 -16.5v47q16 7 45 14.5t63 7.5q39 0 66 -9.5t44.5 -25t25 -36.5t7.5 -44
q0 -32 -14 -61t-38 -55.5t-55.5 -50t-66.5 -44.5h181v-47h-267z" />
    <glyph glyph-name="threequarters" unicode="&#xbe;" horiz-adv-x="759" 
d="M210 0h-62l458 610h59zM611 0v74h-200v36l203 256h52v-249h60v-43h-60v-74h-55zM611 297l-139 -180h139v180zM41 307q23 -10 53 -17t62 -7q18 0 35.5 3t30.5 10.5t21 20t8 32.5q0 19 -10 32t-27.5 20t-41.5 9.5t-51 1.5v42q55 -2 87 11t32 53q0 26 -19.5 39.5t-64.5 13.5
q-24 0 -55 -7t-52 -17v47q17 8 48 15t64 7q28 0 52 -5.5t42 -16.5t28.5 -29.5t10.5 -43.5q0 -34 -18.5 -54.5t-46.5 -31.5v-1q35 -7 56 -30t21 -58q0 -58 -39.5 -83.5t-103.5 -25.5q-38 0 -70 6.5t-52 14.5v49z" />
    <glyph glyph-name="questiondown" unicode="&#xbf;" horiz-adv-x="431" 
d="M398 -135q-26 -13 -69.5 -24.5t-100.5 -11.5q-37 0 -68.5 9t-55 28t-37 48t-13.5 70q0 38 15.5 73.5t39 67.5t51.5 59.5t54 50.5h70q-29 -26 -56.5 -55t-49.5 -60.5t-35.5 -64.5t-13.5 -66q0 -99 110 -99q48 0 89 10.5t70 24.5v-60zM312 402q0 -25 -17.5 -40.5
t-41.5 -15.5t-41 16t-17 40q0 25 17 40.5t41 15.5t41.5 -15.5t17.5 -40.5z" />
    <glyph glyph-name="Agrave" unicode="&#xc0;" horiz-adv-x="648" 
d="M552 0l-65 150h-326l-65 -150h-80l266 610h84l266 -610h-80zM376 412l-51 131h-2l-51 -131l-84 -199h272zM295 672l-115 138h88l80 -138h-53z" />
    <glyph glyph-name="Aacute" unicode="&#xc1;" horiz-adv-x="648" 
d="M552 0l-65 150h-326l-65 -150h-80l266 610h84l266 -610h-80zM376 412l-51 131h-2l-51 -131l-84 -199h272zM280 672l80 138h88l-115 -138h-53z" />
    <glyph glyph-name="Acircumflex" unicode="&#xc2;" horiz-adv-x="648" 
d="M552 0l-65 150h-326l-65 -150h-80l266 610h84l266 -610h-80zM376 412l-51 131h-2l-51 -131l-84 -199h272zM410 672l-86 80l-86 -80h-57l115 133h56l115 -133h-57z" />
    <glyph glyph-name="Atilde" unicode="&#xc3;" horiz-adv-x="648" 
d="M552 0l-65 150h-326l-65 -150h-80l266 610h84l266 -610h-80zM376 412l-51 131h-2l-51 -131l-84 -199h272zM468 781q4 -45 -14.5 -72t-60.5 -27q-21 0 -38 8t-32.5 18t-30.5 18t-30 8q-21 0 -28.5 -14t-5.5 -33h-48q-4 46 15 72.5t61 26.5q21 0 37.5 -8t31.5 -18t29.5 -18
t30.5 -8q20 0 28.5 13.5t6.5 33.5h48z" />
    <glyph glyph-name="Adieresis" unicode="&#xc4;" horiz-adv-x="648" 
d="M552 0l-65 150h-326l-65 -150h-80l266 610h84l266 -610h-80zM376 412l-51 131h-2l-51 -131l-84 -199h272zM264 740q0 -21 -12.5 -34.5t-38.5 -13.5t-39 13.5t-13 34.5q0 22 13 35.5t39 13.5t38.5 -13.5t12.5 -35.5zM486 740q0 -21 -13 -34.5t-39 -13.5t-39 13.5t-13 34.5
q0 22 13 35.5t39 13.5t39 -13.5t13 -35.5z" />
    <glyph glyph-name="Aring" unicode="&#xc5;" horiz-adv-x="648" 
d="M552 0l-65 150h-326l-65 -150h-80l266 610h84l266 -610h-80zM376 412l-51 131h-2l-51 -131l-84 -199h272zM324 651q-48 0 -75.5 26t-27.5 66q0 39 27.5 65t75.5 26t75.5 -26t27.5 -65q0 -40 -27.5 -66t-75.5 -26zM324 795q-25 0 -40 -14.5t-15 -37.5q0 -24 15 -38.5
t40 -14.5t40 14.5t15 38.5q0 23 -15 37.5t-40 14.5z" />
    <glyph glyph-name="AE" unicode="&#xc6;" horiz-adv-x="876" 
d="M443 0v148h-246l-97 -148h-82l404 610h402v-65h-304v-202h277v-64h-277v-214h304v-65h-381zM443 526l-206 -315h206v315z" />
    <glyph glyph-name="Ccedilla" unicode="&#xc7;" horiz-adv-x="617" 
d="M568 29q-30 -16 -77 -28.5t-114 -12.5q-69 0 -128.5 21t-103.5 61.5t-69 99.5t-25 135q0 75 25 133.5t69 99.5t104 62.5t131 21.5q66 0 107.5 -11t70.5 -25v-73q-37 22 -77.5 33t-97.5 11t-103.5 -16.5t-80 -48.5t-51.5 -79t-18 -108t18.5 -108t52.5 -79t80 -48.5
t102 -16.5q60 0 104 14.5t81 36.5v-75zM311 -143q11 -3 25 -6t34 -3q23 0 40 7.5t17 28.5q0 24 -27 33t-65 10l16 80l39 -4q0 -8 -1.5 -23.5t-2.5 -23.5q19 -1 37 -5.5t32 -13.5t22 -23.5t8 -35.5q0 -23 -10 -38t-25.5 -24t-35.5 -13t-39 -4q-22 0 -37 2.5t-27 5.5v50z" />
    <glyph glyph-name="Egrave" unicode="&#xc8;" horiz-adv-x="515" 
d="M76 0v610h387v-65h-310v-202h283v-64h-283v-214h310v-65h-387zM268 672l-115 138h88l80 -138h-53z" />
    <glyph glyph-name="Eacute" unicode="&#xc9;" horiz-adv-x="515" 
d="M76 0v610h387v-65h-310v-202h283v-64h-283v-214h310v-65h-387zM173 672l80 138h88l-115 -138h-53z" />
    <glyph glyph-name="Ecircumflex" unicode="&#xca;" horiz-adv-x="515" 
d="M76 0v610h387v-65h-310v-202h283v-64h-283v-214h310v-65h-387zM343 672l-86 80l-86 -80h-57l115 133h56l115 -133h-57z" />
    <glyph glyph-name="Edieresis" unicode="&#xcb;" horiz-adv-x="515" 
d="M76 0v610h387v-65h-310v-202h283v-64h-283v-214h310v-65h-387zM198 740q0 -21 -12.5 -34.5t-38.5 -13.5t-39 13.5t-13 34.5q0 22 13 35.5t39 13.5t38.5 -13.5t12.5 -35.5zM420 740q0 -21 -13 -34.5t-39 -13.5t-39 13.5t-13 34.5q0 22 13 35.5t39 13.5t39 -13.5t13 -35.5z
" />
    <glyph glyph-name="Igrave" unicode="&#xcc;" horiz-adv-x="234" 
d="M78 0v610h78v-610h-78zM110 672l-115 138h88l80 -138h-53z" />
    <glyph glyph-name="Iacute" unicode="&#xcd;" horiz-adv-x="234" 
d="M78 0v610h78v-610h-78zM85 672l80 138h88l-115 -138h-53z" />
    <glyph glyph-name="Icircumflex" unicode="&#xce;" horiz-adv-x="234" 
d="M78 0v610h78v-610h-78zM205 672l-86 80l-86 -80h-57l115 133h56l115 -133h-57z" />
    <glyph glyph-name="Idieresis" unicode="&#xcf;" horiz-adv-x="234" 
d="M78 0v610h78v-610h-78zM60 740q0 -21 -12.5 -34.5t-38.5 -13.5t-39 13.5t-13 34.5q0 22 13 35.5t39 13.5t38.5 -13.5t12.5 -35.5zM282 740q0 -21 -13 -34.5t-39 -13.5t-39 13.5t-13 34.5q0 22 13 35.5t39 13.5t39 -13.5t13 -35.5z" />
    <glyph glyph-name="Eth" unicode="&#xd0;" horiz-adv-x="653" 
d="M76 0v279h-61v56h61v275h221q143 0 224 -76t81 -224q0 -156 -80.5 -233t-228.5 -77h-217zM291 65q117 0 175 58t58 187q0 125 -57.5 180t-171.5 55h-142v-210h151v-56h-151v-214h138z" />
    <glyph glyph-name="Ntilde" unicode="&#xd1;" horiz-adv-x="672" 
d="M516 0l-239 327q-36 48 -69.5 95t-59.5 92h-2q5 -42 5.5 -84.5t0.5 -85.5v-344h-76v610h80l239 -327q36 -48 69.5 -95t59.5 -92h2q-5 42 -5.5 84.5t-0.5 85.5v344h76v-610h-80zM480 781q4 -45 -14.5 -72t-60.5 -27q-21 0 -38 8t-32.5 18t-30.5 18t-30 8q-21 0 -28.5 -14
t-5.5 -33h-48q-4 46 15 72.5t61 26.5q21 0 37.5 -8t31.5 -18t29.5 -18t30.5 -8q20 0 28.5 13.5t6.5 33.5h48z" />
    <glyph glyph-name="Ograve" unicode="&#xd2;" horiz-adv-x="752" 
d="M376 53q55 0 100 16.5t77.5 48t50.5 78.5t18 109q0 61 -18 108t-50.5 79t-77.5 48.5t-100 16.5t-100 -16.5t-77.5 -48.5t-50.5 -79t-18 -108q0 -62 18 -109t50.5 -78.5t77.5 -48t100 -16.5zM701 305q0 -75 -25.5 -134t-69.5 -99.5t-103.5 -62t-126.5 -21.5
q-68 0 -127 21.5t-103 62t-69.5 99.5t-25.5 134t25.5 134t69.5 99.5t103 62t127 21.5q67 0 126.5 -21.5t103.5 -62t69.5 -99.5t25.5 -134zM377 672l-115 138h88l80 -138h-53z" />
    <glyph glyph-name="Oacute" unicode="&#xd3;" horiz-adv-x="752" 
d="M376 53q55 0 100 16.5t77.5 48t50.5 78.5t18 109q0 61 -18 108t-50.5 79t-77.5 48.5t-100 16.5t-100 -16.5t-77.5 -48.5t-50.5 -79t-18 -108q0 -62 18 -109t50.5 -78.5t77.5 -48t100 -16.5zM701 305q0 -75 -25.5 -134t-69.5 -99.5t-103.5 -62t-126.5 -21.5
q-68 0 -127 21.5t-103 62t-69.5 99.5t-25.5 134t25.5 134t69.5 99.5t103 62t127 21.5q67 0 126.5 -21.5t103.5 -62t69.5 -99.5t25.5 -134zM322 672l80 138h88l-115 -138h-53z" />
    <glyph glyph-name="Ocircumflex" unicode="&#xd4;" horiz-adv-x="752" 
d="M376 53q55 0 100 16.5t77.5 48t50.5 78.5t18 109q0 61 -18 108t-50.5 79t-77.5 48.5t-100 16.5t-100 -16.5t-77.5 -48.5t-50.5 -79t-18 -108q0 -62 18 -109t50.5 -78.5t77.5 -48t100 -16.5zM701 305q0 -75 -25.5 -134t-69.5 -99.5t-103.5 -62t-126.5 -21.5
q-68 0 -127 21.5t-103 62t-69.5 99.5t-25.5 134t25.5 134t69.5 99.5t103 62t127 21.5q67 0 126.5 -21.5t103.5 -62t69.5 -99.5t25.5 -134zM462 672l-86 80l-86 -80h-57l115 133h56l115 -133h-57z" />
    <glyph glyph-name="Otilde" unicode="&#xd5;" horiz-adv-x="752" 
d="M376 53q55 0 100 16.5t77.5 48t50.5 78.5t18 109q0 61 -18 108t-50.5 79t-77.5 48.5t-100 16.5t-100 -16.5t-77.5 -48.5t-50.5 -79t-18 -108q0 -62 18 -109t50.5 -78.5t77.5 -48t100 -16.5zM701 305q0 -75 -25.5 -134t-69.5 -99.5t-103.5 -62t-126.5 -21.5
q-68 0 -127 21.5t-103 62t-69.5 99.5t-25.5 134t25.5 134t69.5 99.5t103 62t127 21.5q67 0 126.5 -21.5t103.5 -62t69.5 -99.5t25.5 -134zM520 781q4 -45 -14.5 -72t-60.5 -27q-21 0 -38 8t-32.5 18t-30.5 18t-30 8q-21 0 -28.5 -14t-5.5 -33h-48q-4 46 15 72.5t61 26.5
q21 0 37.5 -8t31.5 -18t29.5 -18t30.5 -8q20 0 28.5 13.5t6.5 33.5h48z" />
    <glyph glyph-name="Odieresis" unicode="&#xd6;" horiz-adv-x="752" 
d="M376 53q55 0 100 16.5t77.5 48t50.5 78.5t18 109q0 61 -18 108t-50.5 79t-77.5 48.5t-100 16.5t-100 -16.5t-77.5 -48.5t-50.5 -79t-18 -108q0 -62 18 -109t50.5 -78.5t77.5 -48t100 -16.5zM701 305q0 -75 -25.5 -134t-69.5 -99.5t-103.5 -62t-126.5 -21.5
q-68 0 -127 21.5t-103 62t-69.5 99.5t-25.5 134t25.5 134t69.5 99.5t103 62t127 21.5q67 0 126.5 -21.5t103.5 -62t69.5 -99.5t25.5 -134zM316 740q0 -21 -12.5 -34.5t-38.5 -13.5t-39 13.5t-13 34.5q0 22 13 35.5t39 13.5t38.5 -13.5t12.5 -35.5zM538 740q0 -21 -13 -34.5
t-39 -13.5t-39 13.5t-13 34.5q0 22 13 35.5t39 13.5t39 -13.5t13 -35.5z" />
    <glyph glyph-name="multiply" unicode="&#xd7;" horiz-adv-x="522" 
d="M261 264l-151 -151l-45 46l150 150l-150 151l45 46l151 -151l151 151l46 -46l-151 -151l151 -150l-46 -46z" />
    <glyph glyph-name="Oslash" unicode="&#xd8;" horiz-adv-x="752" 
d="M73 -18l73 88q-45 42 -70 100.5t-25 134.5q0 75 25.5 134t69.5 99.5t103 62t127 21.5q107 0 190 -53l47 57h66l-73 -87q45 -42 70 -100.5t25 -133.5t-25.5 -134t-69.5 -99.5t-103.5 -62t-126.5 -21.5q-54 0 -101.5 12.5t-87.5 38.5l-47 -57h-67zM522 517q-61 40 -146 40
q-55 0 -100 -16.5t-77.5 -48.5t-50.5 -79t-18 -108q0 -116 62 -181zM231 91q62 -38 145 -38q55 0 100 16.5t77.5 48t50.5 78.5t18 109q0 58 -16.5 102.5t-45.5 76.5z" />
    <glyph glyph-name="Ugrave" unicode="&#xd9;" horiz-adv-x="692" 
d="M541 610h77v-349q0 -150 -72 -213q-35 -32 -86 -46t-114 -14t-113.5 14t-85.5 46q-73 64 -73 213v349h78v-342q0 -114 47 -164t147 -50t147.5 50t47.5 164v342zM337 672l-115 138h88l80 -138h-53z" />
    <glyph glyph-name="Uacute" unicode="&#xda;" horiz-adv-x="692" 
d="M541 610h77v-349q0 -150 -72 -213q-35 -32 -86 -46t-114 -14t-113.5 14t-85.5 46q-73 64 -73 213v349h78v-342q0 -114 47 -164t147 -50t147.5 50t47.5 164v342zM302 672l80 138h88l-115 -138h-53z" />
    <glyph glyph-name="Ucircumflex" unicode="&#xdb;" horiz-adv-x="692" 
d="M541 610h77v-349q0 -150 -72 -213q-35 -32 -86 -46t-114 -14t-113.5 14t-85.5 46q-73 64 -73 213v349h78v-342q0 -114 47 -164t147 -50t147.5 50t47.5 164v342zM432 672l-86 80l-86 -80h-57l115 133h56l115 -133h-57z" />
    <glyph glyph-name="Udieresis" unicode="&#xdc;" horiz-adv-x="692" 
d="M541 610h77v-349q0 -150 -72 -213q-35 -32 -86 -46t-114 -14t-113.5 14t-85.5 46q-73 64 -73 213v349h78v-342q0 -114 47 -164t147 -50t147.5 50t47.5 164v342zM286 740q0 -21 -12.5 -34.5t-38.5 -13.5t-39 13.5t-13 34.5q0 22 13 35.5t39 13.5t38.5 -13.5t12.5 -35.5z
M508 740q0 -21 -13 -34.5t-39 -13.5t-39 13.5t-13 34.5q0 22 13 35.5t39 13.5t39 -13.5t13 -35.5z" />
    <glyph glyph-name="Yacute" unicode="&#xdd;" horiz-adv-x="610" 
d="M266 0v236l-246 374h81l129 -200l73 -121h4l73 121l129 200h81l-246 -374v-236h-78zM261 672l80 138h88l-115 -138h-53z" />
    <glyph glyph-name="Thorn" unicode="&#xde;" horiz-adv-x="572" 
d="M296 205q75 0 112.5 25.5t37.5 95.5q0 69 -37.5 94.5t-112.5 25.5h-143v-241h143zM153 141v-141h-77v610h77v-100h142q111 0 169 -42t58 -142t-57.5 -142.5t-169.5 -42.5h-142z" />
    <glyph glyph-name="germandbls" unicode="&#xdf;" horiz-adv-x="608" 
d="M264 75q23 -11 52.5 -19.5t71.5 -8.5q52 0 76 22t24 57q0 30 -14.5 49t-36.5 32.5t-47.5 24.5t-47.5 24.5t-36.5 32t-14.5 48.5q0 24 11 40t28 28t36 21.5t36 21.5t28 28t11 40q0 42 -33.5 63t-93.5 21q-49 0 -81 -14t-50.5 -38t-26 -55.5t-7.5 -65.5v-427h-75v447
q0 45 13 84t41.5 68t73.5 46t108 17q46 0 83.5 -9t64.5 -27.5t41.5 -46t14.5 -64.5q0 -30 -11 -51t-28 -36t-36.5 -26.5t-36.5 -21.5t-28 -20t-11 -24q0 -17 14.5 -28t37 -21.5t48 -22t48 -29t37 -43.5t14.5 -65q0 -64 -45 -101t-121 -37q-42 0 -74 8.5t-58 19.5v58z" />
    <glyph glyph-name="agrave" unicode="&#xe0;" horiz-adv-x="518" 
d="M374 210q-26 7 -60 12.5t-66 5.5q-64 0 -98.5 -22t-34.5 -73q0 -45 29 -66t77 -21q60 0 96 25t57 67v72zM387 0l-8 77h-2q-19 -33 -61.5 -60.5t-107.5 -27.5q-75 0 -119.5 36t-44.5 105q0 38 15 66t41 47t61.5 28t77.5 9q40 0 76 -6.5t59 -13.5v36q0 55 -32.5 82
t-95.5 27q-46 0 -86.5 -11.5t-74.5 -28.5v62q32 14 73.5 24.5t95.5 10.5q41 0 76.5 -9t61.5 -29.5t41 -54t15 -82.5v-287h-61zM260 512l-115 138h88l80 -138h-53z" />
    <glyph glyph-name="aacute" unicode="&#xe1;" horiz-adv-x="518" 
d="M374 210q-26 7 -60 12.5t-66 5.5q-64 0 -98.5 -22t-34.5 -73q0 -45 29 -66t77 -21q60 0 96 25t57 67v72zM387 0l-8 77h-2q-19 -33 -61.5 -60.5t-107.5 -27.5q-75 0 -119.5 36t-44.5 105q0 38 15 66t41 47t61.5 28t77.5 9q40 0 76 -6.5t59 -13.5v36q0 55 -32.5 82
t-95.5 27q-46 0 -86.5 -11.5t-74.5 -28.5v62q32 14 73.5 24.5t95.5 10.5q41 0 76.5 -9t61.5 -29.5t41 -54t15 -82.5v-287h-61zM205 512l80 138h88l-115 -138h-53z" />
    <glyph glyph-name="acircumflex" unicode="&#xe2;" horiz-adv-x="518" 
d="M374 210q-26 7 -60 12.5t-66 5.5q-64 0 -98.5 -22t-34.5 -73q0 -45 29 -66t77 -21q60 0 96 25t57 67v72zM387 0l-8 77h-2q-19 -33 -61.5 -60.5t-107.5 -27.5q-75 0 -119.5 36t-44.5 105q0 38 15 66t41 47t61.5 28t77.5 9q40 0 76 -6.5t59 -13.5v36q0 55 -32.5 82
t-95.5 27q-46 0 -86.5 -11.5t-74.5 -28.5v62q32 14 73.5 24.5t95.5 10.5q41 0 76.5 -9t61.5 -29.5t41 -54t15 -82.5v-287h-61zM345 512l-86 80l-86 -80h-57l115 133h56l115 -133h-57z" />
    <glyph glyph-name="atilde" unicode="&#xe3;" horiz-adv-x="518" 
d="M374 210q-26 7 -60 12.5t-66 5.5q-64 0 -98.5 -22t-34.5 -73q0 -45 29 -66t77 -21q60 0 96 25t57 67v72zM387 0l-8 77h-2q-19 -33 -61.5 -60.5t-107.5 -27.5q-75 0 -119.5 36t-44.5 105q0 38 15 66t41 47t61.5 28t77.5 9q40 0 76 -6.5t59 -13.5v36q0 55 -32.5 82
t-95.5 27q-46 0 -86.5 -11.5t-74.5 -28.5v62q32 14 73.5 24.5t95.5 10.5q41 0 76.5 -9t61.5 -29.5t41 -54t15 -82.5v-287h-61zM403 621q4 -45 -14.5 -72t-60.5 -27q-21 0 -38 8t-32.5 18t-30.5 18t-30 8q-21 0 -28.5 -14t-5.5 -33h-48q-4 46 15 72.5t61 26.5q21 0 37.5 -8
t31.5 -18t29.5 -18t30.5 -8q20 0 28.5 13.5t6.5 33.5h48z" />
    <glyph glyph-name="adieresis" unicode="&#xe4;" horiz-adv-x="518" 
d="M374 210q-26 7 -60 12.5t-66 5.5q-64 0 -98.5 -22t-34.5 -73q0 -45 29 -66t77 -21q60 0 96 25t57 67v72zM387 0l-8 77h-2q-19 -33 -61.5 -60.5t-107.5 -27.5q-75 0 -119.5 36t-44.5 105q0 38 15 66t41 47t61.5 28t77.5 9q40 0 76 -6.5t59 -13.5v36q0 55 -32.5 82
t-95.5 27q-46 0 -86.5 -11.5t-74.5 -28.5v62q32 14 73.5 24.5t95.5 10.5q41 0 76.5 -9t61.5 -29.5t41 -54t15 -82.5v-287h-61zM199 580q0 -21 -12.5 -34.5t-38.5 -13.5t-39 13.5t-13 34.5q0 22 13 35.5t39 13.5t38.5 -13.5t12.5 -35.5zM421 580q0 -21 -13 -34.5t-39 -13.5
t-39 13.5t-13 34.5q0 22 13 35.5t39 13.5t39 -13.5t13 -35.5z" />
    <glyph glyph-name="aring" unicode="&#xe5;" horiz-adv-x="518" 
d="M374 210q-26 7 -60 12.5t-66 5.5q-64 0 -98.5 -22t-34.5 -73q0 -45 29 -66t77 -21q60 0 96 25t57 67v72zM387 0l-8 77h-2q-19 -33 -61.5 -60.5t-107.5 -27.5q-75 0 -119.5 36t-44.5 105q0 38 15 66t41 47t61.5 28t77.5 9q40 0 76 -6.5t59 -13.5v36q0 55 -32.5 82
t-95.5 27q-46 0 -86.5 -11.5t-74.5 -28.5v62q32 14 73.5 24.5t95.5 10.5q41 0 76.5 -9t61.5 -29.5t41 -54t15 -82.5v-287h-61zM259 491q-48 0 -75.5 26t-27.5 66q0 39 27.5 65t75.5 26t75.5 -26t27.5 -65q0 -40 -27.5 -66t-75.5 -26zM259 635q-25 0 -40 -14.5t-15 -37.5
q0 -24 15 -38.5t40 -14.5t40 14.5t15 38.5q0 23 -15 37.5t-40 14.5z" />
    <glyph glyph-name="ae" unicode="&#xe6;" horiz-adv-x="799" 
d="M727 28q-37 -19 -74 -29.5t-76 -10.5q-70 0 -117 21.5t-74 63.5q-23 -35 -66.5 -60t-109.5 -25q-75 0 -120.5 36.5t-45.5 105.5q0 36 14 63.5t38.5 46t58.5 28.5t75 11h21.5t21.5 -1q18 -2 37.5 -4t35.5 -6q2 23 8 43.5t14 37.5q-29 56 -121 56q-45 0 -87 -10.5
t-75 -26.5v60q32 14 74.5 24t96.5 10q49 0 88 -13t64 -43q27 26 64.5 41t88.5 15q94 0 144 -56t50 -156q0 -11 -2 -23.5t-4 -24.5h-332q5 -71 43 -114t123 -43q35 0 68.5 11.5t75.5 33.5v-62zM344 218q-22 5 -46 7.5t-47 2.5q-64 0 -100 -22t-36 -73q0 -45 30.5 -66.5
t78.5 -21.5q51 0 84 18.5t56 48.5q-20 49 -20 106zM686 253q0 81 -33.5 117t-91.5 36q-36 0 -62 -11.5t-43 -31.5t-26 -48.5t-12 -61.5h268z" />
    <glyph glyph-name="ccedilla" unicode="&#xe7;" horiz-adv-x="491" 
d="M445 23q-29 -17 -63.5 -26t-85.5 -9q-56 0 -101.5 18t-78 49.5t-50.5 75.5t-18 95q0 50 17.5 93.5t50 75t77.5 49.5t101 18q51 0 86 -10t61 -24v-63q-29 18 -63.5 28.5t-77.5 10.5q-40 0 -72.5 -13t-55 -37t-35 -56.5t-12.5 -71.5t12.5 -72t35.5 -57t55.5 -37.5
t72.5 -13.5q78 0 144 39v-62zM238 -143q11 -3 25 -6t34 -3q23 0 40 7.5t17 28.5q0 24 -27 33t-65 10l16 80l39 -4q0 -8 -1.5 -23.5t-2.5 -23.5q19 -1 37 -5.5t32 -13.5t22 -23.5t8 -35.5q0 -23 -10 -38t-25.5 -24t-35.5 -13t-39 -4q-22 0 -37 2.5t-27 5.5v50z" />
    <glyph glyph-name="egrave" unicode="&#xe8;" horiz-adv-x="535" 
d="M462 28q-36 -19 -78 -29.5t-87 -10.5q-61 0 -107.5 18t-78 50t-47.5 75.5t-16 95.5q0 51 15.5 94t45 74.5t73 49t99.5 17.5q100 0 155 -56t55 -156q0 -11 -2 -23.5t-5 -24.5h-364q4 -72 51 -114.5t132 -42.5q42 0 79.5 12t79.5 35v-64zM424 253q-1 81 -40 117t-103 36
q-72 0 -113.5 -43t-47.5 -110h304zM268 512l-115 138h88l80 -138h-53z" />
    <glyph glyph-name="eacute" unicode="&#xe9;" horiz-adv-x="535" 
d="M462 28q-36 -19 -78 -29.5t-87 -10.5q-61 0 -107.5 18t-78 50t-47.5 75.5t-16 95.5q0 51 15.5 94t45 74.5t73 49t99.5 17.5q100 0 155 -56t55 -156q0 -11 -2 -23.5t-5 -24.5h-364q4 -72 51 -114.5t132 -42.5q42 0 79.5 12t79.5 35v-64zM424 253q-1 81 -40 117t-103 36
q-72 0 -113.5 -43t-47.5 -110h304zM213 512l80 138h88l-115 -138h-53z" />
    <glyph glyph-name="ecircumflex" unicode="&#xea;" horiz-adv-x="535" 
d="M462 28q-36 -19 -78 -29.5t-87 -10.5q-61 0 -107.5 18t-78 50t-47.5 75.5t-16 95.5q0 51 15.5 94t45 74.5t73 49t99.5 17.5q100 0 155 -56t55 -156q0 -11 -2 -23.5t-5 -24.5h-364q4 -72 51 -114.5t132 -42.5q42 0 79.5 12t79.5 35v-64zM424 253q-1 81 -40 117t-103 36
q-72 0 -113.5 -43t-47.5 -110h304zM353 512l-86 80l-86 -80h-57l115 133h56l115 -133h-57z" />
    <glyph glyph-name="edieresis" unicode="&#xeb;" horiz-adv-x="535" 
d="M462 28q-36 -19 -78 -29.5t-87 -10.5q-61 0 -107.5 18t-78 50t-47.5 75.5t-16 95.5q0 51 15.5 94t45 74.5t73 49t99.5 17.5q100 0 155 -56t55 -156q0 -11 -2 -23.5t-5 -24.5h-364q4 -72 51 -114.5t132 -42.5q42 0 79.5 12t79.5 35v-64zM424 253q-1 81 -40 117t-103 36
q-72 0 -113.5 -43t-47.5 -110h304zM208 580q0 -21 -12.5 -34.5t-38.5 -13.5t-39 13.5t-13 34.5q0 22 13 35.5t39 13.5t38.5 -13.5t12.5 -35.5zM430 580q0 -21 -13 -34.5t-39 -13.5t-39 13.5t-13 34.5q0 22 13 35.5t39 13.5t39 -13.5t13 -35.5z" />
    <glyph glyph-name="igrave" unicode="&#xec;" horiz-adv-x="224" 
d="M74 0v450h76v-450h-76zM98 512l-115 138h88l80 -138h-53z" />
    <glyph glyph-name="iacute" unicode="&#xed;" horiz-adv-x="224" 
d="M74 0v450h76v-450h-76zM80 512l80 138h88l-115 -138h-53z" />
    <glyph glyph-name="icircumflex" unicode="&#xee;" horiz-adv-x="224" 
d="M74 0v450h76v-450h-76zM203 512l-86 80l-86 -80h-57l115 133h56l115 -133h-57z" />
    <glyph glyph-name="idieresis" unicode="&#xef;" horiz-adv-x="224" 
d="M74 0v450h76v-450h-76zM55 580q0 -21 -12.5 -34.5t-38.5 -13.5t-39 13.5t-13 34.5q0 22 13 35.5t39 13.5t38.5 -13.5t12.5 -35.5zM277 580q0 -21 -13 -34.5t-39 -13.5t-39 13.5t-13 34.5q0 22 13 35.5t39 13.5t39 -13.5t13 -35.5z" />
    <glyph glyph-name="eth" unicode="&#xf0;" horiz-adv-x="567" 
d="M414 548q45 -45 71.5 -107t28.5 -140q0 -23 -1 -45.5t-4 -42.5q-14 -112 -75.5 -168.5t-158.5 -56.5q-49 0 -91 15.5t-73 43.5t-49 68t-18 90q0 40 12 76.5t37 64.5t63.5 45.5t92.5 19.5q38 1 79 -8q35 -9 60 -24.5t43 -30.5q-2 54 -23.5 97.5t-58.5 75.5l-166 -70v52
l118 50q-69 39 -160 40v55q69 1 126 -16.5t105 -49.5l145 61v-52zM439 256q-29 40 -66 66.5t-88 28.5q-43 5 -74 -5t-51.5 -31t-30.5 -50t-10 -62q0 -40 13 -69.5t34.5 -49t49.5 -29t58 -9.5q82 0 120 55t45 155z" />
    <glyph glyph-name="ntilde" unicode="&#xf1;" horiz-adv-x="574" 
d="M429 0v275q0 66 -27.5 95.5t-81.5 29.5q-57 0 -97.5 -24.5t-74.5 -60.5v-315h-76v450h64l8 -77h2q15 16 34.5 32t43.5 28.5t52 20.5t60 8q78 0 123 -44t45 -134v-284h-75zM431 621q4 -45 -14.5 -72t-60.5 -27q-21 0 -38 8t-32.5 18t-30.5 18t-30 8q-21 0 -28.5 -14
t-5.5 -33h-48q-4 46 15 72.5t61 26.5q21 0 37.5 -8t31.5 -18t29.5 -18t30.5 -8q20 0 28.5 13.5t6.5 33.5h48z" />
    <glyph glyph-name="ograve" unicode="&#xf2;" horiz-adv-x="586" 
d="M538 226q0 -50 -17 -93.5t-49 -75.5t-77.5 -50.5t-101.5 -18.5t-101.5 18.5t-77.5 50.5t-49 75.5t-17 93.5t17 93t49 75t77.5 50t101.5 18t101.5 -18t77.5 -50t49 -75t17 -93zM293 46q38 0 69 13.5t53 37.5t34 57t12 72t-12 71.5t-34 56.5t-53 37t-69 13t-69 -13t-53 -37
t-34 -56.5t-12 -71.5t12 -72t34 -57t53 -37.5t69 -13.5zM294 512l-115 138h88l80 -138h-53z" />
    <glyph glyph-name="oacute" unicode="&#xf3;" horiz-adv-x="586" 
d="M538 226q0 -50 -17 -93.5t-49 -75.5t-77.5 -50.5t-101.5 -18.5t-101.5 18.5t-77.5 50.5t-49 75.5t-17 93.5t17 93t49 75t77.5 50t101.5 18t101.5 -18t77.5 -50t49 -75t17 -93zM293 46q38 0 69 13.5t53 37.5t34 57t12 72t-12 71.5t-34 56.5t-53 37t-69 13t-69 -13t-53 -37
t-34 -56.5t-12 -71.5t12 -72t34 -57t53 -37.5t69 -13.5zM239 512l80 138h88l-115 -138h-53z" />
    <glyph glyph-name="ocircumflex" unicode="&#xf4;" horiz-adv-x="586" 
d="M538 226q0 -50 -17 -93.5t-49 -75.5t-77.5 -50.5t-101.5 -18.5t-101.5 18.5t-77.5 50.5t-49 75.5t-17 93.5t17 93t49 75t77.5 50t101.5 18t101.5 -18t77.5 -50t49 -75t17 -93zM293 46q38 0 69 13.5t53 37.5t34 57t12 72t-12 71.5t-34 56.5t-53 37t-69 13t-69 -13t-53 -37
t-34 -56.5t-12 -71.5t12 -72t34 -57t53 -37.5t69 -13.5zM379 512l-86 80l-86 -80h-57l115 133h56l115 -133h-57z" />
    <glyph glyph-name="otilde" unicode="&#xf5;" horiz-adv-x="586" 
d="M538 226q0 -50 -17 -93.5t-49 -75.5t-77.5 -50.5t-101.5 -18.5t-101.5 18.5t-77.5 50.5t-49 75.5t-17 93.5t17 93t49 75t77.5 50t101.5 18t101.5 -18t77.5 -50t49 -75t17 -93zM293 46q38 0 69 13.5t53 37.5t34 57t12 72t-12 71.5t-34 56.5t-53 37t-69 13t-69 -13t-53 -37
t-34 -56.5t-12 -71.5t12 -72t34 -57t53 -37.5t69 -13.5zM437 621q4 -45 -14.5 -72t-60.5 -27q-21 0 -38 8t-32.5 18t-30.5 18t-30 8q-21 0 -28.5 -14t-5.5 -33h-48q-4 46 15 72.5t61 26.5q21 0 37.5 -8t31.5 -18t29.5 -18t30.5 -8q20 0 28.5 13.5t6.5 33.5h48z" />
    <glyph glyph-name="odieresis" unicode="&#xf6;" horiz-adv-x="586" 
d="M538 226q0 -50 -17 -93.5t-49 -75.5t-77.5 -50.5t-101.5 -18.5t-101.5 18.5t-77.5 50.5t-49 75.5t-17 93.5t17 93t49 75t77.5 50t101.5 18t101.5 -18t77.5 -50t49 -75t17 -93zM293 46q38 0 69 13.5t53 37.5t34 57t12 72t-12 71.5t-34 56.5t-53 37t-69 13t-69 -13t-53 -37
t-34 -56.5t-12 -71.5t12 -72t34 -57t53 -37.5t69 -13.5zM233 580q0 -21 -12.5 -34.5t-38.5 -13.5t-39 13.5t-13 34.5q0 22 13 35.5t39 13.5t38.5 -13.5t12.5 -35.5zM455 580q0 -21 -13 -34.5t-39 -13.5t-39 13.5t-13 34.5q0 22 13 35.5t39 13.5t39 -13.5t13 -35.5z" />
    <glyph glyph-name="divide" unicode="&#xf7;" horiz-adv-x="522" 
d="M262 85q-24 0 -41 16.5t-17 42.5t17 42t41 16t41 -16.5t17 -41.5q0 -26 -17 -42.5t-41 -16.5zM262 414q-24 0 -41 16.5t-17 42.5t17 42t41 16t41 -16t17 -42t-17 -42.5t-41 -16.5zM48 279v61h426v-61h-426z" />
    <glyph glyph-name="oslash" unicode="&#xf8;" horiz-adv-x="586" 
d="M60 -18l59 69q-34 33 -52.5 77t-18.5 98q0 50 17 93t49 75t77.5 50t101.5 18q42 0 77.5 -10t64.5 -29l36 43h55l-58 -69q34 -32 52 -76t18 -95q0 -50 -17 -93.5t-49 -75.5t-77.5 -50.5t-101.5 -18.5q-42 0 -77.5 10t-64.5 29l-37 -45h-54zM392 374q-39 30 -99 30
q-38 0 -69 -13t-53 -37t-34 -56.5t-12 -71.5q0 -73 41 -120zM195 76q39 -30 98 -30q36 0 66.5 13.5t53 37.5t35 57.5t12.5 73.5q0 64 -39 115z" />
    <glyph glyph-name="ugrave" unicode="&#xf9;" horiz-adv-x="559" 
d="M424 0l-8 77h-2q-14 -17 -31.5 -33t-39 -28.5t-48 -20t-57.5 -7.5q-78 0 -123 41t-45 129v292h75v-282q0 -64 27.5 -91t79.5 -27q57 0 95.5 26.5t64.5 59.5v314h75v-450h-63zM280 512l-115 138h88l80 -138h-53z" />
    <glyph glyph-name="uacute" unicode="&#xfa;" horiz-adv-x="559" 
d="M424 0l-8 77h-2q-14 -17 -31.5 -33t-39 -28.5t-48 -20t-57.5 -7.5q-78 0 -123 41t-45 129v292h75v-282q0 -64 27.5 -91t79.5 -27q57 0 95.5 26.5t64.5 59.5v314h75v-450h-63zM225 512l80 138h88l-115 -138h-53z" />
    <glyph glyph-name="ucircumflex" unicode="&#xfb;" horiz-adv-x="559" 
d="M424 0l-8 77h-2q-14 -17 -31.5 -33t-39 -28.5t-48 -20t-57.5 -7.5q-78 0 -123 41t-45 129v292h75v-282q0 -64 27.5 -91t79.5 -27q57 0 95.5 26.5t64.5 59.5v314h75v-450h-63zM365 512l-86 80l-86 -80h-57l115 133h56l115 -133h-57z" />
    <glyph glyph-name="udieresis" unicode="&#xfc;" horiz-adv-x="559" 
d="M424 0l-8 77h-2q-14 -17 -31.5 -33t-39 -28.5t-48 -20t-57.5 -7.5q-78 0 -123 41t-45 129v292h75v-282q0 -64 27.5 -91t79.5 -27q57 0 95.5 26.5t64.5 59.5v314h75v-450h-63zM220 580q0 -21 -12.5 -34.5t-38.5 -13.5t-39 13.5t-13 34.5q0 22 13 35.5t39 13.5t38.5 -13.5
t12.5 -35.5zM442 580q0 -21 -13 -34.5t-39 -13.5t-39 13.5t-13 34.5q0 22 13 35.5t39 13.5t39 -13.5t13 -35.5z" />
    <glyph glyph-name="yacute" unicode="&#xfd;" horiz-adv-x="501" 
d="M217 0l-198 450h75l107 -255l51 -128h2l53 143l96 240h78l-237 -555q-12 -29 -24.5 -51.5t-28 -38t-36 -23.5t-48.5 -8q-23 0 -42 5.5t-33 11.5v61q13 -6 29.5 -13t40.5 -7q29 0 46 18.5t32 56.5zM206 512l80 138h88l-115 -138h-53z" />
    <glyph glyph-name="thorn" unicode="&#xfe;" horiz-adv-x="564" 
d="M74 -215v865h76v-192q0 -21 -0.5 -41.5t-0.5 -40.5h2q12 15 28.5 30.5t36.5 28t45 20t55 7.5q47 0 84 -16.5t62.5 -47t38.5 -73t13 -94.5q0 -62 -15 -108t-41 -76t-61.5 -44.5t-75.5 -14.5q-61 0 -103.5 23.5t-68.5 61.5h-2q3 -59 3 -121v-167h-76zM150 137
q21 -35 62 -62t94 -27q27 0 51 10.5t42 33t28.5 56.5t10.5 82q0 36 -7.5 68t-24 55t-42 36.5t-62.5 13.5q-49 0 -87 -25.5t-65 -63.5v-177z" />
    <glyph glyph-name="ydieresis" unicode="&#xff;" horiz-adv-x="501" 
d="M217 0l-198 450h75l107 -255l51 -128h2l53 143l96 240h78l-237 -555q-12 -29 -24.5 -51.5t-28 -38t-36 -23.5t-48.5 -8q-23 0 -42 5.5t-33 11.5v61q13 -6 29.5 -13t40.5 -7q29 0 46 18.5t32 56.5zM191 580q0 -21 -12.5 -34.5t-38.5 -13.5t-39 13.5t-13 34.5q0 22 13 35.5
t39 13.5t38.5 -13.5t12.5 -35.5zM413 580q0 -21 -13 -34.5t-39 -13.5t-39 13.5t-13 34.5q0 22 13 35.5t39 13.5t39 -13.5t13 -35.5z" />
    <glyph glyph-name="dotlessi" unicode="&#x131;" horiz-adv-x="224" 
d="M74 0v450h76v-450h-76z" />
    <glyph glyph-name="Lslash" unicode="&#x141;" horiz-adv-x="477" 
d="M78 0v234l-58 -31v55l58 30v322h77v-280l163 87v-55l-163 -86v-211h294v-65h-371z" />
    <glyph glyph-name="lslash" unicode="&#x142;" horiz-adv-x="226" 
d="M75 0v268l-65 -35v55l65 34v318h76v-276l65 34v-55l-65 -34v-309h-76z" />
    <glyph glyph-name="OE" unicode="&#x152;" horiz-adv-x="934" 
d="M494 0q-27 -7 -56 -9.5t-61 -2.5q-68 0 -127.5 21.5t-103.5 62t-69.5 99.5t-25.5 134t25.5 134t69.5 99.5t103.5 62t127.5 21.5q63 0 117 -12h388v-65h-311v-202h284v-64h-284v-214h311v-65h-388zM494 541q-26 10 -55.5 13t-61.5 3q-55 0 -100 -16.5t-77.5 -48.5
t-50.5 -79t-18 -108q0 -62 18 -109t50.5 -78.5t77.5 -48t100 -16.5q32 0 61.5 3t55.5 11v474z" />
    <glyph glyph-name="oe" unicode="&#x153;" horiz-adv-x="901" 
d="M829 25q-73 -37 -154 -37q-75 0 -124.5 29.5t-75.5 81.5q-26 -51 -75 -81t-118 -30q-54 0 -97 18.5t-73.5 50.5t-47 75.5t-16.5 93.5t16.5 93t47 75t73.5 50t97 18q69 0 117.5 -29t74.5 -80q24 51 71 80t116 29q91 0 143.5 -56t52.5 -156q0 -24 -6 -48h-340
q4 -72 47.5 -114.5t122.5 -42.5q35 0 73 10t75 32v-62zM282 46q35 0 64 13t50 36.5t32.5 56.5t11.5 74q0 40 -11.5 73t-32.5 56t-50 36t-64 13q-36 0 -65 -13t-49.5 -37t-31.5 -56.5t-11 -71.5t11 -72t31.5 -57t49.5 -37.5t65 -13.5zM788 253q0 81 -35.5 117t-93.5 36
q-66 0 -104 -43t-44 -110h277z" />
    <glyph glyph-name="Scaron" unicode="&#x160;" horiz-adv-x="517" 
d="M46 99q39 -20 87.5 -34t108.5 -14q29 0 56 4t47.5 15.5t33 30.5t12.5 49q0 27 -13.5 46.5t-36 35t-51.5 28.5t-60 27q-30 13 -61 28.5t-57 36.5t-42.5 50t-16.5 68q0 40 15 68.5t43 47t66 27.5t85 9q52 0 94.5 -9.5t71.5 -21.5v-66q-35 14 -74 24t-87 10
q-66 0 -101.5 -20t-35.5 -68q0 -24 12.5 -42.5t33.5 -33t48.5 -27.5t57.5 -27t63 -30t60.5 -37.5t45.5 -51.5t18 -72t-17 -72.5t-47 -50.5t-70.5 -29.5t-87.5 -9.5q-67 0 -118.5 14t-82.5 31v66zM230 672l-115 133h57l86 -79l86 79h57l-115 -133h-56z" />
    <glyph glyph-name="scaron" unicode="&#x161;" horiz-adv-x="422" 
d="M42 77q29 -12 66.5 -21.5t79.5 -9.5q118 0 118 64q0 20 -7.5 33t-22.5 23t-38 18.5t-54 19.5q-26 10 -51.5 21t-45 26.5t-31.5 37.5t-12 54q0 55 41.5 87t129.5 32q42 0 76 -8.5t57 -19.5v-59q-23 11 -54 20.5t-69 9.5q-110 0 -110 -60q0 -19 8.5 -31.5t23.5 -22
t35.5 -17.5t44.5 -17q27 -9 53.5 -20t48.5 -27t35.5 -40t13.5 -58q0 -32 -13.5 -55.5t-37.5 -38.5t-57 -22.5t-72 -7.5q-48 0 -89.5 8.5t-66.5 19.5v61zM183 512l-115 133h57l86 -79l86 79h57l-115 -133h-56z" />
    <glyph glyph-name="Ydieresis" unicode="&#x178;" horiz-adv-x="610" 
d="M266 0v236l-246 374h81l129 -200l73 -121h4l73 121l129 200h81l-246 -374v-236h-78zM245 740q0 -21 -12.5 -34.5t-38.5 -13.5t-39 13.5t-13 34.5q0 22 13 35.5t39 13.5t38.5 -13.5t12.5 -35.5zM467 740q0 -21 -13 -34.5t-39 -13.5t-39 13.5t-13 34.5q0 22 13 35.5
t39 13.5t39 -13.5t13 -35.5z" />
    <glyph glyph-name="Zcaron" unicode="&#x17d;" horiz-adv-x="560" 
d="M45 0v57l363 491l-350 -2v64h437v-57l-363 -490l380 1v-64h-467zM252 672l-115 133h57l86 -79l86 79h57l-115 -133h-56z" />
    <glyph glyph-name="zcaron" unicode="&#x17e;" horiz-adv-x="460" 
d="M38 0v52l278 339l-265 -1v60h354v-52l-279 -339l292 1v-60h-380zM202 512l-115 133h57l86 -79l86 79h57l-115 -133h-56z" />
    <glyph glyph-name="florin" unicode="&#x192;" horiz-adv-x="612" 
d="M263 364h-93l8 58h93q7 45 21 84t39 67.5t61.5 44.5t89.5 16q21 0 41.5 -4t34.5 -9l-8 -61q-14 5 -32 8.5t-38 3.5q-55 0 -89 -34.5t-46 -115.5h156l-9 -58h-155l-57 -392q-23 -162 -169 -162q-22 0 -44 4t-39 9l9 62q13 -5 30 -9t38 -4q27 0 44.5 6.5t29 21t18.5 37
t12 55.5z" />
    <glyph glyph-name="circumflex" unicode="&#x2c6;" horiz-adv-x="326" 
d="M249 512l-86 80l-86 -80h-57l115 133h56l115 -133h-57z" />
    <glyph glyph-name="caron" unicode="&#x2c7;" horiz-adv-x="326" 
d="M135 512l-115 133h57l86 -79l86 79h57l-115 -133h-56z" />
    <glyph glyph-name="breve" unicode="&#x2d8;" horiz-adv-x="326" 
d="M301 642q0 -36 -11 -61.5t-29.5 -42t-44 -24t-53.5 -7.5q-29 0 -54 7.5t-43.5 24t-29.5 42t-11 61.5h48q0 -48 24 -68t66 -20t66 20t24 68h48z" />
    <glyph glyph-name="dotaccent" unicode="&#x2d9;" horiz-adv-x="326" 
d="M218 580q0 -22 -13.5 -36t-41.5 -14t-41.5 14t-13.5 36q0 23 13.5 37t41.5 14t41.5 -14t13.5 -37z" />
    <glyph glyph-name="ring" unicode="&#x2da;" horiz-adv-x="326" 
d="M163 491q-48 0 -75.5 26t-27.5 66q0 39 27.5 65t75.5 26t75.5 -26t27.5 -65q0 -40 -27.5 -66t-75.5 -26zM163 635q-25 0 -40 -14.5t-15 -37.5q0 -24 15 -38.5t40 -14.5t40 14.5t15 38.5q0 23 -15 37.5t-40 14.5z" />
    <glyph glyph-name="ogonek" unicode="&#x2db;" horiz-adv-x="326" 
d="M237 -159q-15 -7 -34 -11t-40 -4q-45 0 -73 19t-28 59q0 26 15 45.5t34 33t37 20.5t25 9l31 -12q-12 -6 -26 -14.5t-26.5 -19t-21 -23.5t-8.5 -26q0 -44 53 -44q20 0 34 3t28 8v-43z" />
    <glyph glyph-name="tilde" unicode="&#x2dc;" horiz-adv-x="326" 
d="M307 621q4 -45 -14.5 -72t-60.5 -27q-21 0 -38 8t-32.5 18t-30.5 18t-30 8q-21 0 -28.5 -14t-5.5 -33h-48q-4 46 15 72.5t61 26.5q21 0 37.5 -8t31.5 -18t29.5 -18t30.5 -8q20 0 28.5 13.5t6.5 33.5h48z" />
    <glyph glyph-name="hungarumlaut" unicode="&#x2dd;" horiz-adv-x="326" 
d="M230 512l92 138h96l-131 -138h-57zM37 512l92 138h96l-131 -138h-57z" />
    <glyph glyph-name="uni03A9" unicode="&#x3a9;" horiz-adv-x="682" 
d="M389 0v56q34 27 64.5 59.5t54 68.5t37 76t13.5 84q0 41 -10.5 79.5t-35 68.5t-66.5 48t-105 18t-105 -18t-66.5 -48t-35 -68.5t-10.5 -79.5q0 -43 13.5 -83.5t36.5 -77t53.5 -68.5t65.5 -59v-56h-228v59h149q-33 20 -63.5 50.5t-53.5 68t-37 80.5t-14 90q0 56 17 106
t52.5 87.5t91.5 59t134 21.5t134 -21.5t91.5 -59t52.5 -87.5t17 -106q0 -47 -14 -90t-37 -80.5t-53.5 -68t-63.5 -50.5h149v-59h-228z" />
    <glyph glyph-name="pi" unicode="&#x3c0;" horiz-adv-x="600" 
d="M553 -2q-10 -3 -25.5 -5t-32.5 -2q-38 0 -61 10.5t-36 29t-17.5 43t-4.5 51.5v260h-171l-24 -385h-72l24 385l-101 5v60h522v-65h-105v-254q0 -45 15 -64t49 -19q9 0 19 2t21 4v-56z" />
    <glyph glyph-name="uni0E00" unicode="&#xe00;" horiz-adv-x="175" 
 />
    <glyph glyph-name="uni0E01" unicode="&#xe01;" horiz-adv-x="636" 
d="M486 0v324q0 47 -9 79.5t-29 53t-52 29.5t-77 9q-48 0 -91 -6.5t-76 -15.5v-473h-76v519q48 15 111 27.5t138 12.5q117 0 177 -55t60 -175v-329h-76z" />
    <glyph glyph-name="uni0E02" unicode="&#xe02;" horiz-adv-x="587" 
d="M437 547h76v-325q0 -117 -63.5 -175.5t-168.5 -58.5q-112 0 -170 54t-58 148q0 51 20.5 86t45.5 63t45.5 53.5t20.5 55.5q0 47 -56 47q-21 0 -38 -4t-31 -9v63q30 11 78 11q58 0 87 -27.5t29 -75.5q0 -41 -19.5 -71t-43.5 -58t-43.5 -59t-19.5 -75q0 -63 37 -101t116 -38
q75 0 115.5 40t40.5 131v325z" />
    <glyph glyph-name="uni0E03" unicode="&#xe03;" horiz-adv-x="593" 
d="M443 547h76v-325q0 -117 -63.5 -175.5t-168.5 -58.5q-112 0 -170 54t-58 148q0 37 9.5 65t24.5 51t32 42.5t32 39.5t25.5 42.5t11.5 51.5h-2q-14 -11 -32 -17.5t-43 -6.5q-20 0 -39.5 8t-31.5 19v70q18 -20 36 -30t40 -10q23 0 40.5 8t34.5 24h64v-58q0 -36 -9.5 -64
t-23.5 -51t-30.5 -43t-30.5 -41t-23.5 -45t-9.5 -55q0 -63 37 -101t116 -38q75 0 115.5 40t40.5 131v325z" />
    <glyph glyph-name="uni0E04" unicode="&#xe04;" horiz-adv-x="660" 
d="M511 0v314q0 96 -45 138.5t-136 42.5t-136 -42.5t-45 -138.5v-106q21 37 64.5 65.5t100.5 28.5q16 0 31.5 -2.5t26.5 -6.5v-71q-29 12 -61 12q-57 0 -95 -23.5t-67 -65.5v-145h-75v317q0 61 18.5 106.5t52 75.5t80.5 45t105 15q117 0 186.5 -60t69.5 -182v-317h-75z" />
    <glyph glyph-name="uni0E05" unicode="&#xe05;" horiz-adv-x="672" 
d="M522 0v371q0 63 -15.5 93.5t-60.5 30.5q-34 0 -51 -21.5t-24 -55.5h-70q-6 34 -23.5 55.5t-50.5 21.5q-45 0 -61 -29t-16 -95v-163q10 18 27.5 35t39.5 30t48 21t53 8q17 0 33.5 -2t27.5 -7v-71q-14 5 -29.5 8.5t-34.5 3.5q-57 0 -96.5 -25t-68.5 -64v-145h-76v374
q0 88 34.5 136.5t106.5 48.5q45 0 77 -23t43 -58h2q11 35 43 58t77 23q72 0 106.5 -48.5t34.5 -136.5v-374h-76z" />
    <glyph glyph-name="uni0E06" unicode="&#xe06;" horiz-adv-x="635" 
d="M485 547h76v-361q0 -99 -52.5 -148.5t-137.5 -49.5q-38 0 -69.5 8t-57.5 22t-48 33t-41 40h-2l-11 -91h-64v203q0 47 17 81.5t38 65.5t38.5 62.5t18.5 72.5h-2q-14 -11 -32.5 -19t-43.5 -8q-20 0 -39 8t-31 19v70q18 -20 36 -30t40 -10t40 8t35 24h65v-58
q0 -47 -16.5 -82t-36 -66.5t-35.5 -63.5t-16 -72v-36q15 -23 36 -44.5t46 -37.5t54.5 -25.5t62.5 -9.5q70 0 101 36t31 102v357z" />
    <glyph glyph-name="uni0E07" unicode="&#xe07;" horiz-adv-x="590" 
d="M214 0l-162 438q-14 35 -25 62t-21 47h80l178 -484h1q51 15 88.5 41t61.5 59.5t35.5 72.5t11.5 80q0 85 -37 132t-103 47q-25 0 -42 -3.5t-31 -8.5v64q14 4 35 7t47 3q43 0 81 -16t66 -46.5t44 -75.5t16 -102q0 -72 -24.5 -127t-64 -94t-89.5 -62.5t-100 -33.5h-46z" />
    <glyph glyph-name="uni0E08" unicode="&#xe08;" horiz-adv-x="582" 
d="M200 0l-92 202q-6 12 -12.5 24t-12.5 23.5t-11 20.5t-8 14h87l98 -224q37 4 74 21t66 46t47 70t18 94q0 97 -50 150.5t-158 53.5q-60 0 -113 -14.5t-95 -34.5v67q38 18 93 32t121 14q73 0 126 -20.5t86.5 -56.5t49.5 -85t16 -106q0 -66 -23.5 -117.5t-62 -87.5t-86 -57.5
t-95.5 -28.5h-63z" />
    <glyph glyph-name="uni0E09" unicode="&#xe09;" horiz-adv-x="614" 
d="M477 0l-11 91h-2q-16 -20 -35.5 -38.5t-44.5 -33t-57 -23t-72 -8.5q-88 0 -135 44t-47 141v54q0 26 -2.5 45t-4.5 28h82v-122q0 -63 27.5 -94.5t96.5 -31.5t116 33.5t76 80.5v158q0 94 -50 132.5t-150 38.5q-60 0 -113 -15t-95 -35v68q38 18 96 32t122 14
q123 0 194.5 -55.5t71.5 -173.5v-330h-63z" />
    <glyph glyph-name="uni0E0A" unicode="&#xe0a;" horiz-adv-x="598" 
d="M399 422q26 -10 50.5 -26.5t43 -40.5t30 -57.5t11.5 -77.5q0 -58 -17.5 -101.5t-50 -72.5t-77.5 -43.5t-99 -14.5q-115 0 -176 54t-61 148q0 51 20.5 86t45.5 63t45.5 53.5t20.5 55.5q0 47 -56 47q-21 0 -38 -4t-31 -9v63q30 11 78 11q58 0 87 -27.5t29 -75.5
q0 -41 -19.5 -71t-43.5 -58t-43.5 -59t-19.5 -75q0 -63 40 -100.5t121 -37.5t125 43t44 128q0 42 -10.5 71.5t-29 50t-43.5 33.5t-53 21v25l123 123h86z" />
    <glyph glyph-name="uni0E0B" unicode="&#xe0b;" horiz-adv-x="604" 
d="M405 422q26 -10 50.5 -26.5t43 -40.5t30 -57.5t11.5 -77.5q0 -58 -17.5 -101.5t-50 -72.5t-77.5 -43.5t-99 -14.5q-115 0 -176 54t-61 148q0 37 9.5 65t24.5 51t32 42.5t32 39.5t25.5 42.5t11.5 51.5h-2q-14 -11 -32 -17.5t-43 -6.5q-20 0 -39.5 8t-31.5 19v70
q18 -20 36 -30t40 -10q23 0 40.5 8t34.5 24h64v-58q0 -36 -9.5 -64t-23.5 -51t-30.5 -43t-30.5 -41t-23.5 -45t-9.5 -55q0 -63 40 -100.5t121 -37.5t125 43t44 128q0 42 -10.5 71.5t-29 50t-43.5 33.5t-53 21v25l123 123h86z" />
    <glyph glyph-name="uni0E0C" unicode="&#xe0c;" horiz-adv-x="982" 
d="M832 547h76v-365q0 -99 -47.5 -146.5t-125.5 -47.5q-68 0 -116 30t-83 73h-2l-11 -91h-64v330q0 89 -35.5 127t-117.5 38q-42 0 -81.5 -6t-72.5 -16v-333q0 -27 5 -44.5t14.5 -27.5t24 -13.5t33.5 -3.5q18 0 37 3.5t34 9.5v-62q-36 -13 -83 -13q-64 0 -102.5 32.5
t-38.5 111.5v386q48 15 107.5 27.5t128.5 12.5q109 0 166 -53.5t57 -170.5v-166q14 -23 33 -44t42.5 -37.5t50.5 -26t57 -9.5q63 0 88.5 35t25.5 99v361z" />
    <glyph glyph-name="uni0E0D" unicode="&#xe0d;" horiz-adv-x="981" 
d="M900 -86q-16 -12 -38.5 -23t-50 -19.5t-59.5 -13.5t-67 -5q-70 0 -126.5 18.5t-88.5 42.5l29 54q32 -23 77.5 -38t108.5 -15t108.5 15t77.5 38zM832 547h75v-331q0 -99 -59 -148t-165 -49t-165 49t-59 148v114q0 89 -35.5 127t-117.5 38q-42 0 -81.5 -6t-72.5 -16v-333
q0 -27 5 -44.5t14.5 -27.5t24 -13.5t33.5 -3.5q18 0 37 3.5t34 9.5v-62q-36 -13 -83 -13q-64 0 -102.5 32.5t-38.5 111.5v386q48 15 107.5 27.5t128.5 12.5q109 0 166 -53.5t57 -170.5v-116q0 -136 148 -136q149 0 149 136v328z" />
    <glyph glyph-name="uni0E0E" unicode="&#xe0e;" horiz-adv-x="655" 
d="M514 -233l-151 48q-23 8 -47 15t-49 7q-32 0 -53.5 -16.5t-20.5 -52.5h-66q0 33 10.5 57.5t29.5 40.5t44.5 24t54.5 8q31 0 59.5 -7t54.5 -16l125 -45v503q0 43 -8 74t-26 50.5t-47.5 28.5t-71.5 9q-45 0 -83 -6.5t-71 -15.5v-351q0 -69 -30.5 -101t-85.5 -32
q-21 0 -37 2t-27 5v63q9 -3 21.5 -5.5t26.5 -2.5q26 0 41 16.5t15 56.5v395q48 15 106.5 27.5t128.5 12.5q112 0 168 -53t56 -168v-571h-67z" />
    <glyph glyph-name="uni0E0F" unicode="&#xe0f;" horiz-adv-x="655" 
d="M501 -233q-51 0 -91.5 17.5t-53.5 59.5q-14 -38 -48 -59t-82 -21q-26 0 -51.5 5.5t-48.5 18.5v67q21 -14 44 -23t53 -9q42 0 66 20.5t34 63.5h64q11 -42 36.5 -60.5t63.5 -18.5h18v505q0 43 -8 74t-26 50.5t-47.5 28.5t-71.5 9q-45 0 -83 -6.5t-71 -15.5v-351
q0 -69 -30.5 -101t-85.5 -32q-21 0 -37 2t-27 5v63q9 -3 21.5 -5.5t26.5 -2.5q26 0 41 16.5t15 56.5v395q48 15 106.5 27.5t128.5 12.5q112 0 168 -53t56 -168v-571h-80z" />
    <glyph glyph-name="uni0E10" unicode="&#xe10;" horiz-adv-x="582" 
d="M200 0l-92 202q-6 12 -12.5 24t-12.5 23.5t-11 20.5t-8 14h87l98 -224q37 4 74 21t66 46t47 70t18 94q0 97 -50 150.5t-158 53.5q-60 0 -113 -14.5t-95 -34.5v67q38 18 93 32t121 14q40 0 73.5 -7.5t62.5 -20.5l62 63h94l-104 -96q45 -38 67.5 -91t22.5 -116
q0 -66 -23.5 -117.5t-62 -87.5t-86 -57.5t-95.5 -28.5h-63zM425 -233l-141 50q-23 8 -44 14t-46 6q-32 0 -53 -16.5t-21 -52.5h-66q0 33 10.5 57.5t29.5 40.5t44.5 24t54.5 8q31 0 56.5 -6t51.5 -15l115 -47v118h75v-181h-66z" />
    <glyph glyph-name="uni0E11" unicode="&#xe11;" horiz-adv-x="655" 
d="M505 0v373q0 63 -22 93t-73 30q-54 0 -100.5 -28.5t-80.5 -72t-53.5 -95.5t-19.5 -98v-202h-76v203q0 53 17 90.5t38 68.5t39 59.5t19 63.5h-2q-13 -11 -31.5 -19t-43.5 -8q-20 0 -39 8t-31 19v70q18 -20 35.5 -30t39.5 -10q23 0 40.5 8t34.5 24h47l7 -58q28 27 72 48.5
t101 21.5q70 0 114 -44t44 -138v-377h-76z" />
    <glyph glyph-name="uni0E12" unicode="&#xe12;" horiz-adv-x="1069" 
d="M919 547h76v-361q0 -100 -49 -149t-133 -49q-37 0 -67 8t-55.5 22t-46.5 33t-40 40h-2l-11 -91h-63v393q0 54 -14.5 78t-49.5 24q-29 0 -44 -22t-21 -55h-70q-8 32 -22 54.5t-49 22.5q-39 0 -64 -23t-40 -57.5t-20.5 -74t-5.5 -73.5q0 -45 9.5 -84.5t31 -69t56.5 -46.5
t86 -17q24 0 45 5t37 12v-62q-18 -7 -42.5 -11.5t-50.5 -4.5q-69 0 -116.5 23.5t-76.5 62t-42 88.5t-13 103q0 63 14 117t40 93t63 61t84 22q46 0 72.5 -23t37.5 -58h2q12 35 41.5 58t74.5 23q63 0 92.5 -43t29.5 -118v-229q15 -23 34.5 -44.5t44 -37.5t53 -25.5t61.5 -9.5
q66 0 94.5 36t28.5 102v357z" />
    <glyph glyph-name="uni0E13" unicode="&#xe13;" horiz-adv-x="983" 
d="M844 0l-11 91h-2q-35 -45 -83.5 -74t-118.5 -29q-76 0 -123 43t-47 138v161q0 89 -35.5 127t-117.5 38q-42 0 -81.5 -6t-72.5 -16v-333q0 -27 5 -44.5t14.5 -27.5t24 -13.5t33.5 -3.5q18 0 37 3.5t34 9.5v-62q-36 -13 -83 -13q-64 0 -102.5 32.5t-38.5 111.5v386
q48 15 107.5 27.5t128.5 12.5q109 0 166 -53.5t57 -170.5v-160q0 -63 27 -93t87 -30q30 0 57 9.5t50.5 26t42.5 37.5t33 44v378h75v-547h-63z" />
    <glyph glyph-name="uni0E14" unicode="&#xe14;" horiz-adv-x="653" 
d="M501 0v449q-26 19 -62.5 32.5t-93.5 13.5q-46 0 -85.5 -15t-69 -45t-46 -75t-16.5 -105q0 -44 10 -81t32 -64.5t57.5 -43t86.5 -15.5q23 0 43 4.5t37 11.5v-63q-18 -7 -42 -11t-49 -4q-69 0 -117 22.5t-77.5 60t-43 85t-13.5 98.5q0 71 23 127.5t62.5 95.5t92 60
t112.5 21q79 0 136 -24.5t99 -59.5v-475h-76z" />
    <glyph glyph-name="uni0E15" unicode="&#xe15;" horiz-adv-x="688" 
d="M536 0v393q0 102 -61 102q-32 0 -49 -22t-23 -55h-70q-8 33 -24 55t-51 22q-57 0 -93.5 -59.5t-36.5 -168.5q0 -45 9.5 -84t31.5 -68.5t57 -46.5t86 -17q24 0 45 5t37 12v-63q-18 -7 -42.5 -11.5t-50.5 -4.5q-69 0 -116.5 23.5t-77 62t-42.5 88.5t-13 103q0 63 14 117
t40.5 93t64 61t84.5 22q46 0 73.5 -22.5t38.5 -57.5h2q12 35 42.5 57.5t75.5 22.5q63 0 94 -43t31 -118v-398h-76z" />
    <glyph glyph-name="uni0E16" unicode="&#xe16;" horiz-adv-x="639" 
d="M489 0v324q0 47 -9 79.5t-29.5 53t-52.5 29.5t-77 9q-48 0 -92 -6.5t-77 -15.5v-332q0 -27 4.5 -44.5t14.5 -27.5t26 -14t38 -4t40.5 4.5t34.5 11.5v-62q-16 -7 -39 -11.5t-49 -4.5q-33 0 -59.5 7.5t-46 24.5t-30 44.5t-10.5 67.5v386q48 15 112 27.5t139 12.5
q117 0 177.5 -55t60.5 -175v-329h-76z" />
    <glyph glyph-name="uni0E17" unicode="&#xe17;" horiz-adv-x="654" 
d="M504 0v357q0 63 -27 100.5t-93 37.5q-69 0 -125 -28.5t-107 -79.5v-387h-76v547h64l11 -91h2q19 18 43.5 36t54.5 33t65.5 24.5t75.5 9.5q85 0 136.5 -49.5t51.5 -148.5v-361h-76z" />
    <glyph glyph-name="uni0E18" unicode="&#xe18;" horiz-adv-x="605" 
d="M76 241h74v-176q29 -7 70.5 -10t83.5 -3q41 0 73 4t54 14.5t33.5 29t11.5 48.5q0 33 -13.5 54t-37 34.5t-55 21.5t-68.5 14q-48 8 -91.5 16.5t-77.5 24t-54 41.5t-20 69q0 68 66 102t179 34q28 0 56.5 -2.5t55.5 -7t50.5 -11t41.5 -13.5v-66q-40 17 -89 27.5t-109 10.5
q-37 0 -69 -3t-56 -11.5t-37.5 -22.5t-13.5 -36q0 -24 13.5 -38t38.5 -23t60 -15t78 -14q47 -9 88.5 -21t72 -32.5t48.5 -52t18 -78.5q0 -45 -17 -76t-49.5 -50t-78 -27.5t-102.5 -8.5q-52 0 -113 7t-115 20v226z" />
    <glyph glyph-name="uni0E19" unicode="&#xe19;" horiz-adv-x="633" 
d="M493 0l-11 91h-2q-16 -20 -37 -38.5t-47.5 -33t-58.5 -23t-71 -8.5q-87 0 -139.5 46t-52.5 144v369h76v-365q0 -66 31 -98t100 -32q34 0 63.5 9t55 25t46 36.5t35.5 43.5v381h76v-547h-64z" />
    <glyph glyph-name="uni0E1A" unicode="&#xe1a;" horiz-adv-x="636" 
d="M486 547h76v-316q0 -66 -17 -112t-49 -75t-77 -42.5t-101 -13.5t-101 13.5t-77 42.5t-49 75t-17 112v316h76v-313q0 -98 41 -140t127 -42t127 42t41 140v313z" />
    <glyph glyph-name="uni0E1B" unicode="&#xe1b;" horiz-adv-x="636" 
d="M486 780h76v-549q0 -66 -17 -112t-49 -75t-77 -42.5t-101 -13.5t-101 13.5t-77 42.5t-49 75t-17 112v316h76v-313q0 -98 41 -140t127 -42t127 42t41 140v546z" />
    <glyph glyph-name="uni0E1C" unicode="&#xe1c;" horiz-adv-x="681" 
d="M343 295l-187 -295h-80v436q0 15 3.5 36t16 40t37 32.5t65.5 13.5q14 0 31 -1.5t31 -5.5v-63q-9 3 -21 5.5t-27 2.5q-34 0 -48 -17.5t-14 -59.5v-195q0 -35 -1.5 -73.5t-6.5 -73.5h2q9 18 17 33t16.5 30t18.5 31.5t23 36.5l93 148h60l91 -147q13 -20 23 -36.5t18 -31.5
t16 -30.5t17 -33.5h2q-5 45 -6.5 78.5t-1.5 68.5v323h74v-547h-79z" />
    <glyph glyph-name="uni0E1D" unicode="&#xe1d;" horiz-adv-x="681" 
d="M343 295l-187 -295h-80v436q0 15 3.5 36t16 40t37 32.5t65.5 13.5q14 0 31 -1.5t31 -5.5v-63q-9 3 -21 5.5t-27 2.5q-34 0 -48 -17.5t-14 -59.5v-195q0 -35 -1.5 -73.5t-6.5 -73.5h2q9 18 17 33t16.5 30t18.5 31.5t23 36.5l93 148h60l91 -147q13 -20 23 -36.5t18 -31.5
t16 -30.5t17 -33.5h2q-5 45 -6.5 78.5t-1.5 68.5v556h74v-780h-79z" />
    <glyph glyph-name="uni0E1E" unicode="&#xe1e;" horiz-adv-x="742" 
d="M512 0l-110 353q-10 31 -17 63t-13 64h-2q-6 -32 -13 -64t-17 -63l-110 -353h-79l-93 431q-8 35 -17.5 65.5t-17.5 50.5h84l64 -316q8 -40 14 -85t11 -85h3q6 42 15 86.5t22 83.5l100 316h70l100 -316q13 -39 22 -83.5t15 -86.5h3q5 40 11 85t14 85l64 316h74l-118 -547
h-79z" />
    <glyph glyph-name="uni0E1F" unicode="&#xe1f;" horiz-adv-x="742" 
d="M506 0l-112 353q-10 31 -17 63t-13 64h-2q-6 -32 -13 -64t-17 -63l-108 -353h-79l-93 431q-8 35 -14.5 65.5t-14.5 50.5h84l58 -316q8 -40 14 -85t11 -85h3q6 42 15 86.5t22 83.5l98 316h70l102 -316q13 -39 22 -83.5t15 -86.5h3q5 40 11 85t14 85l95 549h70l-145 -780
h-79z" />
    <glyph glyph-name="uni0E20" unicode="&#xe20;" horiz-adv-x="655" 
d="M505 0v333q0 43 -8 74t-26 50.5t-47.5 28.5t-71.5 9q-45 0 -83 -6.5t-71 -15.5v-351q0 -69 -30.5 -101t-85.5 -32q-21 0 -37 2t-27 5v63q9 -3 21.5 -5.5t26.5 -2.5q26 0 41 16.5t15 56.5v395q48 15 106.5 27.5t128.5 12.5q112 0 168 -53t56 -168v-338h-76z" />
    <glyph glyph-name="uni0E21" unicode="&#xe21;" horiz-adv-x="633" 
d="M483 547h76v-361q0 -99 -52.5 -148.5t-137.5 -49.5q-38 0 -69.5 8t-57.5 22t-48 33t-41 40h-2l-11 -91h-64v547h76v-378q15 -23 36 -44.5t46 -37.5t54.5 -25.5t62.5 -9.5q70 0 101 36t31 102v357z" />
    <glyph glyph-name="uni0E22" unicode="&#xe22;" horiz-adv-x="626" 
d="M474 547h76v-477q-26 -18 -52.5 -33.5t-57 -26t-67.5 -16.5t-83 -6q-51 0 -93.5 9t-73 29t-48 52t-17.5 78t24.5 78t59.5 49v2q-35 14 -57.5 45.5t-22.5 82.5q0 64 43.5 104.5t118.5 40.5q32 0 55.5 -5t38.5 -10v-63q-16 7 -36 11.5t-46 4.5q-40 0 -70 -20t-30 -65
q0 -51 30 -68.5t97 -17.5h88v-60h-145q-38 -17 -55 -42.5t-17 -59.5q0 -60 40.5 -85.5t116.5 -25.5q61 0 104 11.5t79 37.5v446z" />
    <glyph glyph-name="uni0E23" unicode="&#xe23;" horiz-adv-x="536" 
d="M62 98q37 -18 87 -33.5t110 -15.5q31 0 57.5 4.5t46 14.5t30.5 27t11 41q0 25 -13.5 43.5t-36.5 32t-52.5 24.5t-60.5 22q-34 12 -67 25t-59.5 31t-42.5 43t-16 61q0 63 51 102t157 39q54 0 103 -11.5t79 -25.5v-64q-33 15 -79 27.5t-97 12.5q-142 0 -142 -78
q0 -21 12.5 -36t33.5 -27.5t49.5 -23t60.5 -21.5q42 -15 77.5 -29.5t61.5 -34t40.5 -46.5t14.5 -66q0 -76 -59.5 -112t-158.5 -36q-60 0 -112.5 13.5t-85.5 30.5v66z" />
    <glyph glyph-name="uni0E24" unicode="&#xe24;" horiz-adv-x="639" 
d="M489 -223v547q0 47 -9 79.5t-29.5 53t-52.5 29.5t-77 9q-48 0 -92 -6.5t-77 -15.5v-332q0 -27 4.5 -44.5t14.5 -27.5t26 -14t38 -4t40.5 4.5t34.5 11.5v-62q-16 -7 -39 -11.5t-49 -4.5q-33 0 -59.5 7.5t-46 24.5t-30 44.5t-10.5 67.5v386q48 15 112 27.5t139 12.5
q117 0 177.5 -55t60.5 -175v-552h-76z" />
    <glyph glyph-name="uni0E25" unicode="&#xe25;" horiz-adv-x="614" 
d="M464 0v277q-79 0 -142 -4.5t-107 -18.5t-67.5 -40.5t-23.5 -69.5q0 -48 30 -70.5t84 -22.5q49 0 89 17v-64q-17 -7 -41 -11t-56 -4q-81 0 -131.5 37.5t-50.5 114.5q0 58 27.5 95.5t80.5 60t130.5 31.5t177.5 9v8q0 78 -40 114.5t-124 36.5q-66 0 -122 -15.5t-98 -35.5v69
q37 17 93 31t125 14q117 0 179.5 -50.5t62.5 -159.5v-349h-76z" />
    <glyph glyph-name="uni0E26" unicode="&#xe26;" horiz-adv-x="655" 
d="M505 -223v556q0 43 -8 74t-26 50.5t-47.5 28.5t-71.5 9q-45 0 -83 -6.5t-71 -15.5v-351q0 -69 -30.5 -101t-85.5 -32q-21 0 -37 2t-27 5v63q9 -3 21.5 -5.5t26.5 -2.5q26 0 41 16.5t15 56.5v395q48 15 106.5 27.5t128.5 12.5q112 0 168 -53t56 -168v-561h-76z" />
    <glyph glyph-name="uni0E27" unicode="&#xe27;" horiz-adv-x="547" 
d="M53 100q35 -20 76 -34t92 -14q96 0 147 59t51 162q0 105 -49 163.5t-149 58.5q-55 0 -100.5 -15.5t-82.5 -36.5v68q32 18 79.5 33t107.5 15q66 0 116.5 -20t84.5 -57.5t51.5 -90t17.5 -118.5q0 -135 -71 -210t-197 -75q-57 0 -100 13t-74 30v69z" />
    <glyph glyph-name="uni0E28" unicode="&#xe28;" horiz-adv-x="660" 
d="M511 0v314q0 96 -45 138.5t-136 42.5t-136 -42.5t-45 -138.5v-106q21 37 64.5 65.5t100.5 28.5q16 0 31.5 -2.5t26.5 -6.5v-71q-29 12 -61 12q-57 0 -95 -23.5t-67 -65.5v-145h-75v317q0 61 18.5 106.5t52 75.5t80.5 45t105 15q71 0 131 -26l61 61h94l-104 -96
q74 -62 74 -181v-317h-75z" />
    <glyph glyph-name="uni0E29" unicode="&#xe29;" horiz-adv-x="647" 
d="M562 291v-60q0 -66 -17 -112t-49 -75t-77 -42.5t-101 -13.5t-101 13.5t-77 42.5t-49 75t-17 112v316h76v-313q0 -98 41 -140t127 -42t127 42t41 140v57h-153v58h153v198h76v-198h73v-58h-73z" />
    <glyph glyph-name="uni0E2A" unicode="&#xe2a;" horiz-adv-x="614" 
d="M464 0v277q-79 0 -142 -4.5t-107 -18.5t-67.5 -40.5t-23.5 -69.5q0 -48 30 -70.5t84 -22.5q49 0 89 17v-64q-17 -7 -41 -11t-56 -4q-81 0 -131.5 37.5t-50.5 114.5q0 58 27.5 95.5t80.5 60t130.5 31.5t177.5 9v8q0 78 -40 114.5t-124 36.5q-66 0 -122 -15.5t-98 -35.5v69
q37 17 93 31t125 14q37 0 69 -6.5t59 -17.5l58 59h94l-100 -93q29 -26 45.5 -63.5t16.5 -88.5v-349h-76z" />
    <glyph glyph-name="uni0E2B" unicode="&#xe2b;" horiz-adv-x="638" 
d="M488 0v214q0 42 -9.5 69t-26.5 43t-39.5 22t-49.5 6q-60 0 -113 -16.5t-98 -40.5v-297h-76v547h76v-189q18 10 42.5 20.5t52.5 19t58.5 14t61.5 5.5q5 0 9 -0.5t9 -0.5l106 131h87l-118 -147q54 -20 79 -67t25 -111v-222h-76z" />
    <glyph glyph-name="uni0E2C" unicode="&#xe2c;" horiz-adv-x="681" 
d="M525 0l-187 295l-183 -295h-79v547h74v-323q0 -35 -1.5 -68.5t-6.5 -78.5h2q9 18 17 33.5t16 30.5t18 31.5t23 36.5l91 147h60l93 -148q13 -20 23 -36.5t18.5 -31.5t16.5 -30t17 -33h2q-5 35 -6.5 73.5t-1.5 73.5v195q0 53 -20 71t-58 18q-21 0 -39.5 -3t-32.5 -7v57
q32 13 80 13l90 99h85l-106 -110q36 -13 55.5 -45t19.5 -87v-425h-80z" />
    <glyph glyph-name="uni0E2D" unicode="&#xe2d;" horiz-adv-x="626" 
d="M295 52q47 0 84.5 12t64 38t40.5 67.5t14 100.5q0 112 -54.5 168.5t-166.5 56.5q-63 0 -116 -14t-95 -34v70q38 16 91.5 29t121.5 13q72 0 127.5 -20t92.5 -57.5t56 -91t19 -120.5q0 -74 -21 -127t-58.5 -87.5t-89 -51t-112.5 -16.5q-53 0 -98 12.5t-77.5 37.5t-51 61.5
t-18.5 84.5q0 14 1.5 31t4.5 34.5t7 33.5t9 28h168v-62h-109q-5 -20 -6 -36.5t-1 -28.5q0 -72 43.5 -102t129.5 -30z" />
    <glyph glyph-name="uni0E2E" unicode="&#xe2e;" horiz-adv-x="628" 
d="M295 52q47 0 84.5 12t64 38t40.5 67.5t14 100.5q0 109 -54 167t-167 58q-63 0 -116 -14t-95 -34v70q38 16 91.5 29t121.5 13q73 0 131 -23l57 58h94l-95 -89q53 -38 80.5 -98.5t27.5 -136.5q0 -74 -21 -127t-58.5 -87.5t-89 -51t-112.5 -16.5q-53 0 -98 12.5t-77.5 37.5
t-51 61.5t-18.5 84.5q0 14 1.5 31t4.5 34.5t7 33.5t9 28h172v-62h-113q-5 -20 -6 -36.5t-1 -28.5q0 -72 43.5 -102t129.5 -30z" />
    <glyph glyph-name="uni0E2F" unicode="&#xe2f;" horiz-adv-x="506" 
d="M354 -80v535q-27 -48 -68.5 -79t-105.5 -31q-66 0 -101.5 33.5t-35.5 102.5q0 20 4 37.5t8 28.5h70q-4 -9 -7.5 -23.5t-3.5 -37.5q0 -14 4 -28t13 -25.5t23.5 -18.5t35.5 -7q34 0 60.5 12t46 32t33.5 45t24 51h76v-627h-76z" />
    <glyph glyph-name="uni0E30" unicode="&#xe30;" horiz-adv-x="386" 
d="M173 369q-117 0 -117 90q0 14 3 26.5t8 26.5h70q-5 -12 -6.5 -21t-1.5 -18q0 -26 14 -33.5t38 -7.5h145v-63h-153zM173 74q-117 0 -117 90q0 14 3 26.5t8 26.5h70q-5 -12 -6.5 -21t-1.5 -18q0 -26 14 -33.5t38 -7.5h145v-63h-153z" />
    <glyph glyph-name="uni0E31" unicode="&#xe31;" 
d="M-231 643q-60 0 -89.5 23.5t-29.5 68.5q0 21 11 54h70q-8 -27 -8 -42q0 -25 14 -33.5t40 -8.5h291v-62h-299z" />
    <glyph glyph-name="uni0E32" unicode="&#xe32;" horiz-adv-x="492" 
d="M342 0v350q0 81 -35 113t-104 32q-62 0 -105.5 -16t-75.5 -35v67q31 17 78 32.5t113 15.5q42 0 79 -10.5t65 -34.5t44.5 -62.5t16.5 -93.5v-358h-76z" />
    <glyph glyph-name="uni0E33" unicode="&#xe33;" horiz-adv-x="492" 
d="M-63 725q0 26 -16.5 41.5t-42.5 15.5t-42.5 -15.5t-16.5 -41.5t16.5 -41.5t42.5 -15.5t42.5 15.5t16.5 41.5zM-5 725q0 -22 -8 -41.5t-23 -34.5t-37 -23.5t-49 -8.5t-49 8.5t-37 23.5t-23 34.5t-8 41.5t8 41.5t23 34.5t37 23.5t49 8.5t49 -8.5t37 -23.5t23 -34.5t8 -41.5
zM342 0v350q0 81 -35 113t-104 32q-62 0 -105.5 -16t-75.5 -35v67q31 17 78 32.5t113 15.5q42 0 79 -10.5t65 -34.5t44.5 -62.5t16.5 -93.5v-358h-76z" />
    <glyph glyph-name="uni0E34" unicode="&#xe34;" 
d="M-538 643v62h464v-62h-464z" />
    <glyph glyph-name="uni0E35" unicode="&#xe35;" 
d="M-538 643v62h394l-3 110h73v-172h-464z" />
    <glyph glyph-name="uni0E36" unicode="&#xe36;" 
d="M-538 643v62h287q-8 21 -8 37q0 19 8 36t22 29t32.5 19t38.5 7q48 0 75.5 -28t27.5 -67q0 -38 -27.5 -66.5t-75.5 -28.5h-380zM-105 738q0 25 -15 38.5t-38 13.5t-38 -13.5t-15 -38.5q0 -24 15 -38t38 -14t38 14t15 38z" />
    <glyph glyph-name="uni0E37" unicode="&#xe37;" 
d="M-538 643v62h273l-2 110h66v-113h63l-3 113h67v-172h-464z" />
    <glyph glyph-name="uni0E38" unicode="&#xe38;" 
d="M-146 -269v96q0 21 -9.5 31.5t-32.5 10.5q-9 0 -20.5 -2t-20.5 -5v57q13 4 33 6.5t35 2.5q87 0 87 -87v-110h-72z" />
    <glyph glyph-name="uni0E39" unicode="&#xe39;" 
d="M-143 -80h69v-94q0 -29 -11.5 -49.5t-31.5 -33.5t-46.5 -18.5t-55.5 -5.5t-55.5 5.5t-46.5 18.5t-31.5 33.5t-11.5 49.5v44h-61v50h130v-86q0 -33 18 -45t58 -12t58 12t18 45v86z" />
    <glyph glyph-name="uni0E3A" unicode="&#xe3a;" 
d="M-55 -127q0 -25 -17 -40.5t-40 -15.5q-24 0 -41.5 15.5t-17.5 40.5t17.5 40t41.5 15q23 0 40 -15t17 -40z" />
    <glyph glyph-name="uni0E3F" unicode="&#xe3f;" horiz-adv-x="612" 
d="M288 -100v100h-212v610h212v100h55v-100q86 0 137.5 -35.5t51.5 -117.5q0 -48 -21.5 -81t-53.5 -54v-2q57 -17 83 -56.5t26 -96.5q0 -48 -18 -80t-48.5 -51.5t-71 -27.5t-85.5 -8v-100h-55zM339 62q28 0 54.5 3.5t47.5 15t34 33t13 56.5q0 37 -12.5 59t-32.5 32.5
t-45.5 13.5t-51.5 3h-193v-216h186zM345 340q13 0 25 -0.5t24 -1.5q27 22 43.5 48.5t16.5 64.5q0 48 -24.5 72.5t-91.5 24.5h-185v-208h192z" />
    <glyph glyph-name="uni0E40" unicode="&#xe40;" horiz-adv-x="230" 
d="M78 0v547h74v-547h-74z" />
    <glyph glyph-name="uni0E41" unicode="&#xe41;" horiz-adv-x="438" 
d="M78 0v547h74v-547h-74zM286 0v547h74v-547h-74z" />
    <glyph glyph-name="uni0E42" unicode="&#xe42;" horiz-adv-x="312" 
d="M148 0v579q0 72 -35.5 121.5t-113.5 69.5v62q40 20 93 34t116 14q61 0 104.5 -6t75.5 -14v-63q-37 11 -83 17t-91 6q-85 0 -145 -23q76 -24 114.5 -83.5t38.5 -138.5v-575h-74z" />
    <glyph glyph-name="uni0E43" unicode="&#xe43;" horiz-adv-x="312" 
d="M148 0v508q0 34 20.5 62t45 55t45 54t20.5 59q0 42 -30.5 62t-78.5 20q-42 0 -87.5 -17.5t-78.5 -45.5v68q26 20 69.5 37.5t97.5 17.5q90 0 134.5 -40t44.5 -100q0 -39 -20 -69t-44 -57t-44 -54t-20 -60v-500h-74z" />
    <glyph glyph-name="uni0E44" unicode="&#xe44;" horiz-adv-x="312" 
d="M148 0v536q0 88 34 158.5t94 115.5l-1 2q-40 -21 -78.5 -30.5t-73.5 -9.5q-38 0 -76 11.5t-60 28.5v64q32 -20 64.5 -31.5t78.5 -11.5q48 0 84.5 10t73.5 32h59v-65q-71 -55 -98 -119.5t-27 -144.5v-546h-74z" />
    <glyph glyph-name="uni0E45" unicode="&#xe45;" horiz-adv-x="492" 
d="M342 -223v573q0 81 -35 113t-104 32q-62 0 -105.5 -16t-75.5 -35v67q31 17 78 32.5t113 15.5q42 0 79 -10.5t65 -34.5t44.5 -62.5t16.5 -93.5v-581h-76z" />
    <glyph glyph-name="uni0E46" unicode="&#xe46;" horiz-adv-x="619" 
d="M464 -213v573q0 60 -14 89.5t-49 39.5l-104 -74l-106 74q-25 -16 -43 -41.5t-18 -67.5q0 -58 26.5 -82t74.5 -24q38 0 61 10v-63q-10 -4 -29 -6.5t-36 -2.5q-48 0 -80 13t-52 36t-28.5 53.5t-8.5 66.5q0 33 11 61t29 50.5t42.5 39t51.5 27.5l104 -78l106 78
q32 -9 57.5 -23t43 -36.5t27 -54t9.5 -75.5v-583h-75z" />
    <glyph glyph-name="uni0E47" unicode="&#xe47;" 
d="M-182 643q-31 0 -57 16.5t-37 47.5q-14 -32 -36.5 -50t-59.5 -18q-55 0 -87 33t-32 90q0 61 38 91.5t107 30.5h236v-56h-233q-83 0 -83 -66q0 -18 5.5 -31t14.5 -21t19.5 -11.5t20.5 -3.5q33 0 46.5 19.5t17.5 42.5h52q4 -23 21.5 -40t52.5 -17h66v-57h-72z" />
    <glyph glyph-name="uni0E48" unicode="&#xe48;" 
d="M-146 869v161h72v-161h-72z" />
    <glyph glyph-name="uni0E49" unicode="&#xe49;" 
d="M-260 869v42q16 3 32 9t29 15t21 21.5t8 27.5q0 34 -40 34q-12 0 -25 -2.5t-22 -6.5v49q27 11 64 11q42 0 62 -19t20 -53q0 -27 -13.5 -46t-32.5 -30l174 4v-56h-277z" />
    <glyph glyph-name="uni0E4A" unicode="&#xe4a;" 
d="M-98 869v51q0 22 -5 35t-22 13q-18 0 -26.5 -13.5t-11.5 -31.5h-47q-3 18 -11.5 31.5t-26.5 13.5q-17 0 -22 -13t-5 -35v-51h-64v56q0 43 19 71.5t61 28.5q55 0 72 -53q20 53 73 53q43 0 63 -28t15 -76l75 2v-54h-137z" />
    <glyph glyph-name="uni0E4B" unicode="&#xe4b;" 
d="M-82 959l2 -90h-64l2 90l-95 -2v56l95 -2l-2 91h64l-2 -91l95 2v-56z" />
    <glyph glyph-name="uni0E4C" unicode="&#xe4c;" 
d="M-150 860q-24 0 -36.5 -8t-12.5 -32q0 -8 1.5 -18t6.5 -22h-68q-11 27 -11 50q0 42 26 65t83 23h146v-58h-135z" />
    <glyph glyph-name="uni0E4D" unicode="&#xe4d;" 
d="M-63 725q0 26 -16.5 41.5t-42.5 15.5t-42.5 -15.5t-16.5 -41.5t16.5 -41.5t42.5 -15.5t42.5 15.5t16.5 41.5zM-5 725q0 -22 -8 -41.5t-23 -34.5t-37 -23.5t-49 -8.5t-49 8.5t-37 23.5t-23 34.5t-8 41.5t8 41.5t23 34.5t37 23.5t49 8.5t49 -8.5t37 -23.5t23 -34.5t8 -41.5
z" />
    <glyph glyph-name="uni0E4E" unicode="&#xe4e;" horiz-adv-x="1170" 
d="M1070 555v-555l-485 -276l-485 276v555l485 277zM614 779l310 -479l93 248zM153 548l93 -248l310 479zM129 18l98 251v2l-98 261v-514zM556 -230l-310 469l-93 -239zM261 269l324 -492l324 492l-324 501zM1018 0l-94 239l-310 -469zM1041 532l-98 -263l98 -251v514z
M415 300q2 -2 5 -4t4 -4q0 -5 1 -8q-20 -23 -36.5 -29t-25.5 -6q18 12 32.5 28.5t19.5 22.5zM450 199q8 0 10 -14t-1 -27q-5 -14 -14 -19.5t-21 -5.5q-15 1 -22.5 10.5t-10.5 21.5t-4 22.5t-2 15.5q-2 8 -2 19t-1 23h1q8 3 18 9.5t21 17.5q4 -19 2.5 -38t-4.5 -33
q-1 -4 -1.5 -11t0.5 -13.5t2.5 -12.5t5.5 -7q7 -2 9 3t3 8q1 8 -1.5 10.5t-4.5 6.5q-2 5 5.5 9.5t11.5 4.5zM558 212q1 1 1.5 4t2.5 6q1 4 3 8q-1 -2 -0.5 -8.5t0.5 -14.5q0 -9 1 -19q-6 1 -11 6q-3 2 -4 3q1 2 3 5q1 2 2 5t2 5zM765 173q2 5 5 8t5 9v-6v-6t-2 -8
q-3 -8 -5 -22t-2 -22q2 -8 2.5 -14t-4.5 -8q1 1 1 4q0 2 -2 12q-5 11 -3 30q1 4 2 11t3 12zM553 125q4 -4 9 -2q3 0 6 2q0 -8 1.5 -13.5t-0.5 -10.5q-1 3 -4 7t-9 2q-3 0 -7 -8q-2 8 -8 8q-5 0 -6.5 -3t-3.5 -6l-4 6l-6 3q-3 0 -5.5 -3.5t-4.5 -5.5q-2 7 2 22q1 3 0.5 8.5
t-0.5 10.5q-1 6 -1 13q14 -6 25 -16t16 -14zM576 168q2 2 10 2q1 -4 -2 -13q-8 6 -8 11zM568 155q2 2 6 1t7 -3l-2 -4q-1 -2 -2 -3t-2 -3q-7 5 -7 12zM562 141q2 1 10 -3q-5 -5 -9 -6q-2 2 -3.5 5t0.5 3zM558 106q5 2 7 -6q-2 -4 -13 -6q2 12 6 12zM541 105q2 0 3 -3.5
t3 -7.5h-6h-8q0 4 2.5 7.5t5.5 3.5zM524 104q4 -4 4 -9q-10 2 -13 4q6 8 7 7zM748 106q3 1 7 -6q-2 -2 -5 -3.5t-9 -2.5q3 12 7 12zM730 105q2 0 4 -3.5t3 -7.5h-6h-8q1 4 3 7.5t4 3.5zM713 105q3 -3 5 -10q-5 2 -8.5 2.5t-5.5 1.5q3 8 6 7zM798 241q1 -3 3 -7q1 -3 2 -7.5
t1 -9.5t-1 -9.5t-2 -8.5l-2 -8q-3 4 -6 10q-2 5 -3.5 14t-0.5 23q1 15 0 28q-1 11 -2.5 23t-4.5 20q-2 -13 -5 -24l-4 -20t-4 -15q-3 -10 -1.5 -24t3.5 -21q2 -8 -3 -13t-9 -16q-3 -8 -4.5 -17t-1.5 -14q0 -7 1 -15.5t5 -17.5q2 -8 0 -10q-2 3 -4.5 6t-7.5 2q-4 0 -8 -8
q-2 8 -9 8q-5 0 -10 -7l-2 6l-7 2q-4 0 -6.5 -3t-4.5 -6q-2 4 -1 9q4 17 7.5 38t-2.5 34q-3 6 -10 14.5t-14.5 19t-13 22t-6.5 25.5q-1 -1 -2 -4q-2 -6 2 -17q-12 -2 -25 -1q-12 1 -27.5 3t-33.5 8q0 2 1 5q1 2 1.5 5.5t2.5 8.5q-2 -4 -6 -8q-3 -4 -6.5 -10.5t-5.5 -15.5
q-2 -6 -8 -19.5t-8 -18.5t7 -11.5t14 -8.5l8 -2t7 -3q-6 0 -9 -5v-2q0 -3 4 -9q-8 2 -10 -2l-1 -4q0 -5 3 -8h-7l-5 -2q-2 -7 2 -12q-2 2 -5 3.5t-7 4.5q-5 4 -11.5 9t-13 9.5t-12 7.5t-7.5 3q-4 2 -10 8.5t-5 23.5q1 8 3 22t3.5 28.5t3.5 27t3 17.5q-2 0 -3 -2
q-1 -1 -5 -11l-16 25q5 3 8.5 8t5.5 9l6 -9l4 -6l4 3q0 1 4.5 6.5t6.5 11.5q5 12 7 27l1.5 7.5t1.5 4.5l3 7l5 12.5t4.5 16t0 17t-8.5 16.5q-8 7 -15.5 9.5t-14.5 2.5q-8 0 -15 -2l5 -0.5t11 -2t12.5 -4t10.5 -7.5q8 -9 8 -22q0 -10 -3.5 -18t-5.5 -16l-3 -7q-1 -2 -1.5 -5
t-2.5 -8q-2 -12 -5 -26q-2 -2 -4.5 -6t-4.5 -7q-3 3 -7 11q-2 4 -4 7l-3 -5q-2 -3 -6.5 -10.5t-9.5 -10.5q-7 -3 -12 -5t-9 -6q-2 -2 -4.5 -5t-4.5 -11q-1 -3 -2.5 -4.5l-3.5 -3.5t-4 -2v2q0 1 -0.5 2.5t-0.5 3.5q-1 2 -0.5 5t0.5 5v4l-16 13l-3 -2q-4 -6 -9 -12
q-5 -5 -11 -12t-13 -14q-1 2 -1 3.5t-1 3.5q-1 -2 -5 -4q-3 -2 -8 -3.5t-13 -1.5q15 11 21 19q3 4 3 6q-1 9 -1 17.5v15.5q0 8 1 16q-1 7 -1.5 22t1.5 23t4.5 15.5t7.5 23.5q6 14 15 18q4 2 10 2q5 6 10 11t10.5 8.5t12.5 4.5q21 2 36.5 -1t28.5 -1q6 1 16 3t21.5 4t22.5 3
t20 0q8 -1 25 -4.5t36.5 -9t37.5 -12.5t29 -15q10 -9 22.5 -19.5t23.5 -24.5t19.5 -31.5t10.5 -40.5t3 -38t2 -24v-17zM450 383q0 2 1.5 3.5l3.5 3.5t4 5q-2 1 -5 1q-6 0 -10 -5q-4 -3 -4 -11q0 -4 1 -7l3 3q2 2 3 3.5t3 3.5zM521 423q-4 6 -8 8t-9 3t-10 0q18 -5 22 -16
q2 -10 2 -17q0 -5 -1 -10q3 5 5 10t2 10.5t-3 11.5z" />
    <glyph glyph-name="uni0E4F" unicode="&#xe4f;" horiz-adv-x="580" 
d="M520 248q0 -50 -18.5 -91.5t-50 -71.5t-73.5 -47t-88 -17q-47 0 -88.5 17t-73 47t-50 71.5t-18.5 91.5q0 49 18.5 90.5t50 71.5t73 46.5t88.5 16.5q46 0 88 -16.5t73.5 -46.5t50 -71.5t18.5 -90.5zM290 56q40 0 74.5 15t60.5 41t41 61t15 75q0 39 -15 73.5t-41 60.5
t-60.5 41t-74.5 15q-39 0 -74 -15t-61 -41t-41 -60.5t-15 -73.5q0 -40 15 -75t41 -61t61 -41t74 -15zM290 156q38 0 64.5 26.5t26.5 64.5t-26.5 64.5t-64.5 26.5t-64.5 -26.5t-26.5 -64.5t26.5 -64.5t64.5 -26.5zM290 113q-28 0 -52.5 10.5t-42.5 29t-28.5 43t-10.5 52.5
q0 27 10.5 51t28.5 42.5t42.5 29t52.5 10.5t52.5 -10.5t42.5 -29t28.5 -42.5t10.5 -51q0 -28 -10.5 -52.5t-28.5 -43t-42.5 -29t-52.5 -10.5z" />
    <glyph glyph-name="uni0E50" unicode="&#xe50;" horiz-adv-x="616" 
d="M574 239q0 -54 -19.5 -100t-54.5 -79.5t-84 -52.5t-108 -19t-107.5 19t-84 52.5t-55 79.5t-19.5 100t19.5 100t55 79.5t84 52.5t107.5 19t108 -19t84 -52.5t54.5 -79.5t19.5 -100zM500 239q0 87 -50.5 138.5t-141.5 51.5t-141 -51.5t-50 -138.5t50 -138.5t141 -51.5
t141.5 51.5t50.5 138.5z" />
    <glyph glyph-name="uni0E51" unicode="&#xe51;" horiz-adv-x="614" 
d="M251 -59v59h27q48 0 88 13.5t69 41t45.5 69.5t16.5 99q0 104 -54 155t-143 51q-88 0 -137.5 -42t-49.5 -111q0 -66 34.5 -97t94.5 -31q24 0 45 3t43 11v-57q-17 -7 -45 -12t-54 -5q-41 0 -76 12.5t-60.5 36.5t-39.5 58.5t-14 78.5q0 49 19 89t53.5 68.5t82.5 43.5t106 15
t107.5 -16t85.5 -49t56 -83.5t20 -119.5q0 -67 -22 -119t-61 -88t-92 -55t-114 -19h-31z" />
    <glyph glyph-name="uni0E52" unicode="&#xe52;" horiz-adv-x="698" 
d="M565 335q0 73 -50 90l-83 -63l-90 63q-23 -8 -40.5 -33.5t-17.5 -63.5q0 -45 20.5 -69.5t68.5 -24.5q11 0 21.5 1.5t21.5 3.5v-56q-26 -6 -53 -6q-72 0 -108 38.5t-36 107.5q0 71 36 110t90 55l87 -65l84 66q65 -14 92.5 -55.5t27.5 -94.5v-315q-33 -9 -63.5 -16
t-63 -11.5t-67.5 -6.5t-75 -2q-149 0 -225.5 35.5t-76.5 121.5v445h74v-435q0 -31 15.5 -51.5t45.5 -32.5t72.5 -17t96.5 -5q58 0 103 4t93 14v268z" />
    <glyph glyph-name="uni0E53" unicode="&#xe53;" horiz-adv-x="650" 
d="M515 0v312q0 66 -19.5 91.5t-61.5 25.5q-38 0 -57.5 -29.5t-19.5 -77.5v-113h-64v104q0 52 -18 84t-60 32q-39 0 -60 -23t-21 -83v-177q0 -54 23.5 -76t65.5 -22q24 0 42.5 3.5t34.5 8.5v-56q-17 -6 -39.5 -10.5t-48.5 -4.5q-72 0 -112 37.5t-40 115.5v186q0 43 11 74
t30 50.5t44 28.5t54 9q48 0 80.5 -24t44.5 -62q14 38 46.5 62t81.5 24q28 0 52.5 -9t43 -28.5t29.5 -50.5t11 -74v-328h-73z" />
    <glyph glyph-name="uni0E54" unicode="&#xe54;" horiz-adv-x="581" 
d="M494 0q-49 0 -88 13t-62 38q-20 -20 -51 -35.5t-65 -15.5h-47q-26 15 -50.5 37t-44.5 52t-32 67.5t-12 82.5q0 111 65 177t196 66h76q31 0 53.5 2t37 9t21 21t6.5 39v37h60q3 -12 4.5 -23.5t2.5 -26.5q0 -18 -3 -36q-8 -45 -48.5 -64.5t-125.5 -19.5h-73
q-103 0 -150.5 -46.5t-47.5 -136.5q0 -55 25 -101.5t71 -74.5h21q25 0 46 8.5t39 22.5q-17 28 -17 67q0 63 39.5 92.5t100.5 29.5q14 0 26 -1.5t23 -3.5v-52h-33q-40 0 -63 -18.5t-23 -53.5q0 -48 29.5 -71t96.5 -23h51v-58h-54z" />
    <glyph glyph-name="uni0E55" unicode="&#xe55;" horiz-adv-x="587" 
d="M500 0q-49 0 -88 13t-63 38q-20 -20 -50.5 -35.5t-64.5 -15.5h-53q-26 15 -50.5 37t-44.5 52t-32 67.5t-12 82.5q0 95 48 158.5t146 77.5q-11 20 -11 44q0 42 29.5 69t75.5 27q45 0 74.5 -25t29.5 -71q0 -21 -9 -36q41 1 59 14.5t18 55.5v37h61q2 -12 4 -25t2 -33
q0 -36 -14.5 -58t-38 -34t-54.5 -16t-64 -4h-92q-99 0 -144.5 -48t-45.5 -135q0 -55 25 -101.5t71 -74.5h27q25 0 46 8.5t39 22.5q-17 28 -17 67q0 63 39.5 92.5t100.5 29.5q24 0 49 -5v-52h-34q-39 0 -62 -18.5t-23 -53.5q0 -48 28.5 -71t97.5 -23h51v-58h-54zM330 471
q21 0 34.5 12.5t13.5 35.5t-13.5 35.5t-34.5 12.5t-35 -12.5t-14 -35.5t14 -35.5t35 -12.5z" />
    <glyph glyph-name="uni0E56" unicode="&#xe56;" horiz-adv-x="609" 
d="M146 231q-10 -27 -10 -63q0 -51 42 -85t124 -34q88 0 139 48.5t51 144.5q0 40 -11.5 74.5t-33 59.5t-53.5 39t-73 14q-63 0 -105.5 -21.5t-68.5 -56.5h-61q-11 69 -33 128t-42 111h78l48 -174q30 32 81 53t114 21q50 0 93 -18t74.5 -51t49.5 -78.5t18 -100.5
q0 -62 -19 -109.5t-54 -79.5t-84 -48.5t-109 -16.5q-53 0 -97 11.5t-75.5 34t-49.5 55.5t-18 75q0 17 2.5 36t6.5 31h76z" />
    <glyph glyph-name="uni0E57" unicode="&#xe57;" horiz-adv-x="772" 
d="M635 610h72v-467q0 -45 -11 -74.5t-30 -47t-45 -25t-56 -7.5q-36 0 -65 5t-57 16v328q0 49 -15 70t-46 21q-63 0 -63 -84v-61h-61v61q0 42 -16.5 63t-46.5 21q-31 0 -46 -21t-15 -70v-192q0 -54 22.5 -76t64.5 -22q44 0 75 11v-55q-17 -7 -38.5 -11t-47.5 -4
q-72 0 -111 37.5t-39 115.5v201q0 76 35 111.5t89 35.5q38 0 65.5 -19.5t38.5 -49.5q12 30 40.5 49.5t66.5 19.5q51 0 85 -35t34 -112v-290q11 -3 21 -4.5t24 -1.5q46 0 61 22.5t15 67.5v473z" />
    <glyph glyph-name="uni0E58" unicode="&#xe58;" horiz-adv-x="649" 
d="M178 0q-25 15 -49.5 37.5t-43.5 52.5t-31 67t-12 82q0 111 65 177t196 66h122q49 0 69 14t20 57v37h60q4 -14 5.5 -26t1.5 -31q0 -52 -33.5 -82.5t-114.5 -30.5h-127q-99 0 -144.5 -48t-45.5 -135q0 -55 24 -101.5t69 -74.5h11q39 0 64 32t30 83h60q2 -25 8.5 -47.5
t18.5 -39.5t30 -27t44 -10q30 0 49.5 21t19.5 76q0 54 -18.5 76t-56.5 22q-16 0 -36 -5v56q9 2 21 3t23 1q69 0 100 -38.5t31 -116.5q0 -34 -7 -62.5t-22 -49t-39.5 -32t-59.5 -11.5q-57 0 -91.5 29.5t-43.5 80.5q-15 -51 -49.5 -76.5t-79.5 -25.5h-38z" />
    <glyph glyph-name="uni0E59" unicode="&#xe59;" horiz-adv-x="632" 
d="M460 0l-177 355q-16 32 -33.5 51.5t-49.5 19.5q-30 0 -48 -20.5t-18 -74.5v-178q0 -58 23.5 -81.5t65.5 -23.5q21 0 39 3.5t32 8.5v-56q-16 -6 -38 -10.5t-45 -4.5q-81 0 -116 42.5t-35 118.5v185q0 42 10.5 71t28.5 48t42 27.5t51 8.5q42 0 70 -15.5t50 -44.5
q15 23 39.5 41.5t62.5 18.5q25 0 41.5 -8.5t27 -23t15 -33t4.5 -39.5v-36q26 0 36 11.5t10 44.5v164h63v-160q0 -60 -27.5 -85.5t-84.5 -25.5h-50v70q0 27 -8.5 45.5t-33.5 18.5q-26 0 -42.5 -15t-25.5 -32l191 -386h-70z" />
    <glyph glyph-name="uni0E5B" unicode="&#xe5b;" horiz-adv-x="1185" 
d="M1147 176q-23 0 -48.5 7t-48.5 22t-41.5 37.5t-27.5 53.5l-33 -173h-58l-86 201l-43 -226h-56l-91 228q-4 -47 -23 -99t-55.5 -96t-91 -73t-129.5 -29q-51 0 -97.5 15.5t-82 47.5t-56.5 80.5t-21 115.5q0 63 18 108.5t48 74.5t69 42.5t80 13.5q36 0 68.5 -10t56.5 -30.5
t38 -51.5t14 -73q0 -39 -14 -67.5t-38 -47t-54.5 -27.5t-63.5 -9v59q18 0 36 5t32 16t23 28.5t9 42.5q0 51 -26 77.5t-80 26.5q-31 0 -57 -9.5t-45.5 -31t-30.5 -55.5t-11 -82q0 -52 14 -89t38.5 -61t58.5 -35.5t74 -11.5q60 0 105.5 25t77 66.5t47.5 96t16 113.5
q0 14 -1 29t-3 29h67l102 -254l40 217h58l85 -205l34 177h56q0 -28 11 -55t31 -49t47 -36t59 -15v-54z" />
    <glyph glyph-name="endash" unicode="&#x2013;" horiz-adv-x="473" 
d="M35 274v61h403v-61h-403z" />
    <glyph glyph-name="emdash" unicode="&#x2014;" horiz-adv-x="786" 
d="M35 274v61h716v-61h-716z" />
    <glyph glyph-name="quoteleft" unicode="&#x2018;" horiz-adv-x="226" 
d="M173 645q-9 -9 -18 -22t-16.5 -28.5t-12.5 -31.5t-5 -31q20 1 35.5 -13.5t15.5 -37.5t-15.5 -37.5t-39.5 -14.5q-31 0 -45 19t-14 44q0 28 8.5 53.5t20.5 46.5t26.5 37.5t26.5 27.5z" />
    <glyph glyph-name="quoteright" unicode="&#x2019;" horiz-adv-x="226" 
d="M53 442q9 9 18 22t16.5 28.5t12.5 31.5t5 31q-20 -2 -35.5 13t-15.5 38t15.5 37t39.5 14q31 0 45 -18.5t14 -43.5q0 -28 -8.5 -53t-20.5 -46.5t-26.5 -38.5t-26.5 -28z" />
    <glyph glyph-name="quotesinglbase" unicode="&#x201a;" horiz-adv-x="226" 
d="M53 -114q9 9 18 22t16.5 28.5t12.5 31.5t5 31q-20 -2 -35.5 13t-15.5 38t15.5 37.5t39.5 14.5q31 0 45 -19t14 -44q0 -28 -8.5 -53t-20.5 -46.5t-26.5 -38.5t-26.5 -28z" />
    <glyph glyph-name="quotedblleft" unicode="&#x201c;" horiz-adv-x="383" 
d="M330 645q-9 -9 -18 -22t-16.5 -28.5t-12.5 -31.5t-5 -31q20 1 35.5 -13.5t15.5 -37.5t-15 -37.5t-40 -14.5q-31 0 -45 19t-14 44q0 28 8.5 53.5t20.5 46.5t26.5 37.5t26.5 27.5zM173 645q-9 -9 -18 -22t-16.5 -28.5t-12.5 -31.5t-5 -31q20 1 35.5 -13.5t15.5 -37.5
t-15.5 -37.5t-39.5 -14.5q-31 0 -45 19t-14 44q0 28 8.5 53.5t20.5 46.5t26.5 37.5t26.5 27.5z" />
    <glyph glyph-name="quotedblright" unicode="&#x201d;" horiz-adv-x="383" 
d="M53 442q9 9 18 22t16.5 28.5t12.5 31.5t5 31q-20 -2 -35.5 13t-15.5 38t15 37t40 14q31 0 45 -18.5t14 -43.5q0 -28 -8.5 -53t-21 -46.5t-27 -38.5t-26.5 -28zM210 442q9 9 18 22t16.5 28.5t12.5 31.5t5 31q-20 -2 -35.5 13t-15.5 38t15 37t40 14q31 0 45 -18.5t14 -43.5
q0 -28 -8.5 -53t-20.5 -46.5t-26.5 -38.5t-26.5 -28z" />
    <glyph glyph-name="quotedblbase" unicode="&#x201e;" horiz-adv-x="378" 
d="M53 -114q9 9 18 22t16.5 28.5t12.5 31.5t5 31q-20 -2 -35.5 13t-15.5 38t15.5 37.5t39.5 14.5q31 0 45 -19t14 -44q0 -28 -8.5 -53t-20.5 -46.5t-26.5 -38.5t-26.5 -28zM210 -114q8 9 17.5 22.5t17 28.5t12.5 31t5 31q-20 -2 -35.5 13t-15.5 38t15 37.5t40 14.5
q31 0 45 -19t14 -44q0 -28 -8.5 -53t-21 -46.5t-27 -38.5t-26.5 -28z" />
    <glyph glyph-name="dagger" unicode="&#x2020;" horiz-adv-x="490" 
d="M213 -260v642h-175v60h175v208h64v-208h175v-60h-175v-642h-64z" />
    <glyph glyph-name="daggerdbl" unicode="&#x2021;" horiz-adv-x="490" 
d="M213 -260v207h-175v61h175v374h-175v60h175v208h64v-208h175v-60h-175v-374h175v-61h-175v-207h-64z" />
    <glyph glyph-name="bullet" unicode="&#x2022;" horiz-adv-x="360" 
d="M60 315q0 23 8.5 44.5t24.5 38t38 26.5t49 10t49 -10t38 -26.5t24.5 -38t8.5 -44.5t-8.5 -44.5t-24.5 -38t-38 -26.5t-49 -10t-49 10t-38 26.5t-24.5 38t-8.5 44.5z" />
    <glyph glyph-name="ellipsis" unicode="&#x2026;" horiz-adv-x="678" 
d="M171 48q0 -25 -17 -40.5t-41 -15.5t-41 16t-17 40q0 25 17 41t41 16t41 -16.5t17 -40.5zM397 48q0 -25 -17 -40.5t-41 -15.5t-41 16t-17 40q0 25 17 41t41 16t41 -16.5t17 -40.5zM623 48q0 -25 -17 -40.5t-41 -15.5t-41 16t-17 40q0 25 17 41t41 16t41 -16.5t17 -40.5z
" />
    <glyph glyph-name="perthousand" unicode="&#x2030;" horiz-adv-x="1027" 
d="M92 0l448 610h60l-447 -610h-61zM185 329q-67 0 -102.5 41.5t-35.5 104.5t35.5 104.5t102.5 41.5t102.5 -41.5t35.5 -104.5t-35.5 -104.5t-102.5 -41.5zM185 372q42 0 64.5 27.5t22.5 75.5t-22.5 75.5t-64.5 27.5t-64.5 -27.5t-22.5 -75.5t22.5 -75.5t64.5 -27.5z
M507 -11q-67 0 -102.5 41.5t-35.5 104.5t35.5 104.5t102.5 41.5t102.5 -41.5t35.5 -104.5t-35.5 -104.5t-102.5 -41.5zM507 32q42 0 64.5 27.5t22.5 75.5t-22.5 75.5t-64.5 27.5t-64.5 -27.5t-22.5 -75.5t22.5 -75.5t64.5 -27.5zM850 -11q-67 0 -102.5 41.5t-35.5 104.5
t35.5 104.5t102.5 41.5t102.5 -41.5t35.5 -104.5t-35.5 -104.5t-102.5 -41.5zM850 32q42 0 64.5 27.5t22.5 75.5t-22.5 75.5t-64.5 27.5t-64.5 -27.5t-22.5 -75.5t22.5 -75.5t64.5 -27.5z" />
    <glyph glyph-name="guilsinglleft" unicode="&#x2039;" horiz-adv-x="280" 
d="M163 62l-138 209l138 212h74l-140 -211l140 -210h-74z" />
    <glyph glyph-name="guilsinglright" unicode="&#x203a;" horiz-adv-x="280" 
d="M43 62l140 210l-140 211h73l139 -212l-139 -209h-73z" />
    <glyph glyph-name="fraction" unicode="&#x2044;" horiz-adv-x="248" 
d="M-134 0l457 610h59l-455 -610h-61z" />
    <glyph glyph-name="Euro" unicode="&#x20ac;" horiz-adv-x="612" 
d="M576 45q-25 -23 -63.5 -41.5t-98.5 -18.5q-51 0 -95 15.5t-79 45t-59 72.5t-36 97h-85v49h79q-1 9 -2 19t-1 21t1 22.5t2 22.5h-79v49h87q12 53 36.5 94.5t59 70t77.5 43.5t91 15q59 0 96.5 -18t60.5 -39l-13 -67q-27 27 -58 43.5t-79 16.5q-72 0 -122.5 -40.5
t-70.5 -118.5h237l-10 -49h-236q-3 -21 -3 -45q0 -11 0.5 -21t1.5 -19h225l-10 -49h-206q20 -84 72.5 -124.5t124.5 -40.5q49 0 82 18.5t59 46.5z" />
    <glyph glyph-name="trademark" unicode="&#x2122;" horiz-adv-x="766" 
d="M665 280l-22 170l-3 75l-93 -245h-53l-93 245l-3 -75l-21 -170h-58l42 330h61l99 -257l98 257h62l41 -330h-57zM135 280v280l-105 -1v51h269v-51l-105 1v-280h-59z" />
    <glyph glyph-name="Omega" unicode="&#x2126;" horiz-adv-x="682" 
d="M389 0v56q34 27 64.5 59.5t54 68.5t37 76t13.5 84q0 41 -10.5 79.5t-35 68.5t-66.5 48t-105 18t-105 -18t-66.5 -48t-35 -68.5t-10.5 -79.5q0 -43 13.5 -83.5t36.5 -77t53.5 -68.5t65.5 -59v-56h-228v59h149q-33 20 -63.5 50.5t-53.5 68t-37 80.5t-14 90q0 56 17 106
t52.5 87.5t91.5 59t134 21.5t134 -21.5t91.5 -59t52.5 -87.5t17 -106q0 -47 -14 -90t-37 -80.5t-53.5 -68t-63.5 -50.5h149v-59h-228z" />
    <glyph glyph-name="estimated" unicode="&#x212e;" horiz-adv-x="856" 
d="M745 130q-54 -63 -134 -101t-177 -38q-83 0 -155 28t-125 77t-83.5 114t-30.5 139q0 75 30 140t82.5 114t123.5 77t154 28q82 0 153.5 -28t124 -77t82.5 -114t30 -140v-14h-628q-5 0 -5 -4v-185q0 -11 2 -17.5t6 -11.5q45 -51 106.5 -73.5t133.5 -22.5q156 0 252 109h58z
M673 551q0 15 -2.5 22t-8.5 14q-46 45 -102.5 68t-128.5 23q-141 0 -235 -97q-9 -9 -9 -29v-187q0 -6 5 -6h476q5 0 5 6v186z" />
    <glyph glyph-name="partialdiff" unicode="&#x2202;" horiz-adv-x="568" 
d="M190 665q69 0 128.5 -27.5t103.5 -77t69 -117t25 -146.5q0 -77 -17.5 -135t-50 -96.5t-77.5 -58t-99 -19.5q-51 0 -93 16t-72 45t-47 69.5t-17 90.5q0 42 13 79.5t40 66.5t67.5 46t95.5 17q31 0 59 -6.5t51.5 -16.5t42 -22t30.5 -23q-2 52 -22.5 98.5t-55 81t-79.5 55
t-95 21.5v59zM442 284q-32 36 -76.5 56t-95.5 20q-40 0 -68.5 -13t-47 -34.5t-27 -50.5t-8.5 -60q0 -38 12.5 -67t33.5 -48.5t48.5 -30t57.5 -10.5q47 0 79 21.5t52 56t29 77t11 83.5z" />
    <glyph glyph-name="Delta" unicode="&#x2206;" horiz-adv-x="612" 
d="M306 570l-175 -505h350zM50 0v52l214 598h84l214 -598v-52h-512z" />
    <glyph glyph-name="product" unicode="&#x220f;" horiz-adv-x="646" 
d="M488 -215v802h-330v-802h-74v865h478v-865h-74z" />
    <glyph glyph-name="summation" unicode="&#x2211;" horiz-adv-x="542" 
d="M40 -215v51l251 377l-240 380v57h430v-69h-334l223 -344v-40l-229 -342h356v-70h-457z" />
    <glyph glyph-name="minus" unicode="&#x2212;" horiz-adv-x="522" 
d="M48 279v61h426v-61h-426z" />
    <glyph glyph-name="uni2219" unicode="&#x2219;" horiz-adv-x="230" 
d="M115 348q26 0 42.5 -16t16.5 -41t-16.5 -41.5t-42.5 -16.5t-42.5 16.5t-16.5 41.5t16.5 41t42.5 16z" />
    <glyph glyph-name="radical" unicode="&#x221a;" horiz-adv-x="491" 
d="M225 -64l-118 335h-83v60h128l108 -327l137 646h60l-152 -714h-80z" />
    <glyph glyph-name="infinity" unicode="&#x221e;" horiz-adv-x="697" 
d="M350 300q9 22 24.5 44t36 39.5t45.5 28.5t52 11q73 0 118.5 -44t45.5 -120q0 -42 -13.5 -73.5t-35.5 -52.5t-50.5 -31.5t-58.5 -10.5q-54 0 -97 31.5t-71 91.5q-9 -22 -24.5 -44t-36 -39.5t-45 -28.5t-51.5 -11q-73 0 -118.5 44t-45.5 120q0 42 13.5 73.5t35.5 52.5
t50.5 31.5t58.5 10.5q54 0 96.5 -31.5t70.5 -91.5zM330 262q-8 20 -21.5 39.5t-31.5 35.5t-39.5 25.5t-45.5 9.5q-32 0 -52.5 -11.5t-33 -29.5t-17.5 -38.5t-5 -38.5t6 -38t18.5 -37t33 -28t49.5 -11q24 0 45.5 10.5t39.5 27.5t31.5 39t22.5 45zM368 261q8 -22 21 -43
t31 -38t39.5 -27.5t46.5 -10.5q31 0 51.5 11.5t33 29.5t17.5 38.5t5 38.5t-6 38.5t-19 37t-33.5 27.5t-49.5 11q-23 0 -44 -10t-38.5 -25.5t-31.5 -36t-23 -41.5z" />
    <glyph glyph-name="integral" unicode="&#x222b;" horiz-adv-x="373" 
d="M40 -163q11 -1 23 -2t26 -1q35 0 47 17t12 57v611q0 26 5 51.5t17.5 46t33.5 33t54 12.5q21 0 40 -2.5t35 -7.5v-54q-11 1 -23 2t-26 1q-35 0 -47 -17t-12 -57v-611q0 -26 -5 -51.5t-17.5 -46t-33.5 -33t-54 -12.5q-21 0 -40 2.5t-35 7.5v54z" />
    <glyph glyph-name="approxequal" unicode="&#x2248;" horiz-adv-x="522" 
d="M455 205q-53 -45 -103 -45q-26 0 -49.5 9t-45.5 20.5t-43.5 20.5t-44.5 9q-29 0 -52.5 -13.5t-49.5 -38.5v66q18 14 43 29t59 15q27 0 50.5 -9t45.5 -20.5t43.5 -20.5t44.5 -9q49 0 102 53v-66zM455 377q-53 -45 -103 -45q-26 0 -49.5 9t-45.5 20.5t-43.5 20.5t-44.5 9
q-29 0 -52.5 -13.5t-49.5 -38.5v66q18 14 43 29t59 15q27 0 50.5 -9t45.5 -20.5t43.5 -20.5t44.5 -9q49 0 102 53v-66z" />
    <glyph glyph-name="notequal" unicode="&#x2260;" horiz-adv-x="522" 
d="M236 191l-98 -191h-58l97 191h-125v59h155l58 111h-213v58h242l90 175h59l-90 -175h117v-58h-147l-57 -111h204v-59h-234z" />
    <glyph glyph-name="lessequal" unicode="&#x2264;" horiz-adv-x="522" 
d="M30 304v56l432 212v-62l-368 -178l368 -178v-62zM30 0v52h432v-52h-432z" />
    <glyph glyph-name="greaterequal" unicode="&#x2265;" horiz-adv-x="522" 
d="M60 92v62l367 178l-367 178v62l432 -212v-56zM60 0v52h432v-52h-432z" />
    <glyph glyph-name="lozenge" unicode="&#x25ca;" horiz-adv-x="560" 
d="M443 325l-163 251l-163 -251l163 -250zM253 0l-211 325l211 325h54l211 -325l-210 -325h-55z" />
    <glyph glyph-name="uni0E10.alt1" unicode="&#xf700;" horiz-adv-x="582" 
d="M200 0l-92 202q-6 12 -12.5 24t-12.5 23.5t-11 20.5t-8 14h87l98 -224q37 4 74 21t66 46t47 70t18 94q0 97 -50 150.5t-158 53.5q-60 0 -113 -14.5t-95 -34.5v67q38 18 93 32t121 14q40 0 73.5 -7.5t62.5 -20.5l62 63h94l-104 -96q45 -38 67.5 -91t22.5 -116
q0 -66 -23.5 -117.5t-62 -87.5t-86 -57.5t-95.5 -28.5h-63z" />
    <glyph glyph-name="uni0E34.alt1" unicode="&#xf701;" 
d="M-624 643v62h416v-62h-416z" />
    <glyph glyph-name="uni0E35.alt1" unicode="&#xf702;" 
d="M-624 643v62h346l-3 110h73v-172h-416z" />
    <glyph glyph-name="uni0E36.alt1" unicode="&#xf703;" 
d="M-624 643v62h239q-8 21 -8 37q0 19 8 36t22 29t32 19t39 7q48 0 75.5 -28t27.5 -67q0 -38 -27.5 -66.5t-75.5 -28.5h-332zM-239 738q0 25 -15 38.5t-38 13.5t-38 -13.5t-15 -38.5q0 -24 15 -38t38 -14t38 14t15 38z" />
    <glyph glyph-name="uni0E37.alt1" unicode="&#xf704;" 
d="M-624 643v62h225l-2 110h66v-113h63l-3 113h67v-172h-416z" />
    <glyph glyph-name="uni0E48.alt1" unicode="&#xf705;" 
d="M-369 643v202h73v-202h-73z" />
    <glyph glyph-name="uni0E49.alt1" unicode="&#xf706;" 
d="M-528 643v47q17 4 35 11t32.5 16.5t23.5 23t9 30.5q0 36 -43 36q-15 0 -29.5 -3t-24.5 -7v53q14 4 32.5 7.5t37.5 3.5q45 0 69 -19t24 -57q0 -29 -15 -49.5t-39 -34.5l189 3v-61h-301z" />
    <glyph glyph-name="uni0E4A.alt1" unicode="&#xf707;" 
d="M-326 643v58q0 24 -6 39.5t-26 15.5t-29.5 -16t-12.5 -35h-54q-3 19 -12.5 35t-29.5 16t-26.5 -15.5t-6.5 -39.5v-58h-70v63q0 48 21.5 79.5t69.5 31.5q60 0 80 -57q22 57 82 57q48 0 71.5 -32t17.5 -86l81 3v-59h-150z" />
    <glyph glyph-name="uni0E4B.alt1" unicode="&#xf708;" 
d="M-335 744l2 -101h-71l2 101l-107 -3v60l107 -2l-2 100h71l-2 -100l107 2v-60z" />
    <glyph glyph-name="uni0E4C.alt1" unicode="&#xf709;" 
d="M-342 723q-26 0 -40 -9t-14 -35q0 -9 2 -19.5t7 -23.5h-74q-12 28 -12 54q0 46 28 71t91 25h146v-63h-134z" />
    <glyph glyph-name="uni0E48.alt2" unicode="&#xf70a;" 
d="M-147 643v202h73v-202h-73z" />
    <glyph glyph-name="uni0E49.alt2" unicode="&#xf70b;" 
d="M-308 643v47q17 4 34.5 11t32 16.5t23.5 23t9 30.5q0 36 -42 36q-15 0 -29.5 -3t-24.5 -7v53q14 4 32.5 7.5t37.5 3.5q45 0 69 -19t24 -57q0 -29 -15 -49.5t-39 -34.5l186 3v-61h-298z" />
    <glyph glyph-name="uni0E4A.alt2" unicode="&#xf70c;" 
d="M-183 643v58q0 24 -6 39.5t-26 15.5t-29.5 -16t-12.5 -35h-54q-3 19 -12.5 35t-29.5 16t-26.5 -15.5t-6.5 -39.5v-58h-70v63q0 48 21.5 79.5t69.5 31.5q60 0 80 -57q22 57 82 57q48 0 71.5 -32t17.5 -86l84 3v-59h-153z" />
    <glyph glyph-name="uni0E4B.alt2" unicode="&#xf70d;" 
d="M-166 744l2 -101h-71l2 101l-107 -3v60l107 -2l-2 100h71l-2 -100l107 2v-60z" />
    <glyph glyph-name="uni0E4C.alt2" unicode="&#xf70e;" 
d="M-161 723q-26 0 -40 -9t-14 -35q0 -9 2 -19.5t7 -23.5h-74q-7 14 -10 28t-3 26q0 46 28.5 71t91.5 25h148v-63h-136z" />
    <glyph glyph-name="uni0E0D.alt1" unicode="&#xf70f;" horiz-adv-x="981" 
d="M832 547h75v-362q0 -99 -59 -148t-165 -49t-165 49t-59 148v145q0 89 -35.5 127t-117.5 38q-42 0 -81.5 -6t-72.5 -16v-333q0 -27 5 -44.5t14.5 -27.5t24 -13.5t33.5 -3.5q18 0 37 3.5t34 9.5v-62q-36 -13 -83 -13q-64 0 -102.5 32.5t-38.5 111.5v386q48 15 107.5 27.5
t128.5 12.5q109 0 166 -53.5t57 -170.5v-147q0 -136 148 -136q149 0 149 136v359z" />
    <glyph glyph-name="uni0E31.alt1" unicode="&#xf710;" 
d="M-423 643q-60 0 -89.5 23.5t-29.5 68.5q0 21 11 54h70q-8 -27 -8 -42q0 -25 14 -33.5t40 -8.5h227v-62h-235z" />
    <glyph glyph-name="uni0E4D.alt1" unicode="&#xf711;" 
d="M-280 725q0 26 -16.5 41.5t-42.5 15.5t-42.5 -15.5t-16.5 -41.5t16.5 -41.5t42.5 -15.5t42.5 15.5t16.5 41.5zM-222 725q0 -22 -8 -41.5t-23 -34.5t-37 -23.5t-49 -8.5t-49 8.5t-37 23.5t-23 34.5t-8 41.5t8 41.5t23 34.5t37 23.5t49 8.5t49 -8.5t37 -23.5t23 -34.5
t8 -41.5z" />
    <glyph glyph-name="uni0E47.alt1" unicode="&#xf712;" 
d="M-292 643q-31 0 -57 16.5t-37 47.5q-14 -32 -36.5 -50t-59.5 -18q-55 0 -87 33t-32 90q0 61 38 91.5t107 30.5h236v-56h-233q-83 0 -83 -66q0 -18 5.5 -31t14.5 -21t19.5 -11.5t20.5 -3.5q33 0 46.5 19.5t17.5 42.5h52q4 -23 21.5 -40t52.5 -17h66v-57h-72z" />
    <glyph glyph-name="uni0E48.alt3" unicode="&#xf713;" 
d="M-280 869v161h72v-161h-72z" />
    <glyph glyph-name="uni0E49.alt3" unicode="&#xf714;" 
d="M-420 869v42q16 3 32 9t29 15t21 21.5t8 27.5q0 34 -40 34q-12 0 -25 -2.5t-22 -6.5v49q27 11 64 11q42 0 62 -19t20 -53q0 -27 -13.5 -46t-32.5 -30l174 4v-56h-277z" />
    <glyph glyph-name="uni0E4A.alt3" unicode="&#xf715;" 
d="M-299 869v51q0 22 -5 35t-22 13q-18 0 -26.5 -13.5t-11.5 -31.5h-47q-3 18 -11.5 31.5t-26.5 13.5q-17 0 -22 -13t-5 -35v-51h-64v56q0 43 19 71.5t61 28.5q55 0 72 -53q20 53 73 53q43 0 63 -28t15 -76l75 2v-54h-137z" />
    <glyph glyph-name="uni0E4B.alt3" unicode="&#xf716;" 
d="M-216 959l2 -90h-64l2 90l-95 -2v56l95 -2l-2 91h64l-2 -91l95 2v-56z" />
    <glyph glyph-name="uni0E4C.alt3" unicode="&#xf717;" 
d="M-284 860q-24 0 -36.5 -8t-12.5 -32q0 -8 1.5 -18t6.5 -22h-68q-11 27 -11 50q0 42 26 65t83 23h146v-58h-135z" />
    <glyph glyph-name="uni0E38.alt1" unicode="&#xf718;" 
d="M-146 -459v96q0 21 -9.5 31.5t-32.5 10.5q-9 0 -20.5 -2t-20.5 -5v57q13 4 33 6.5t35 2.5q87 0 87 -87v-110h-72z" />
    <glyph glyph-name="uni0E39.alt1" unicode="&#xf719;" 
d="M-143 -270h69v-94q0 -29 -11.5 -49.5t-31.5 -33.5t-46.5 -18.5t-55.5 -5.5t-55.5 5.5t-46.5 18.5t-31.5 33.5t-11.5 49.5v44h-61v50h130v-86q0 -33 18 -45t58 -12t58 12t18 45v86z" />
    <glyph glyph-name="uni0E3A.alt1" unicode="&#xf71a;" 
d="M-55 -317q0 -25 -17 -40.5t-40 -15.5q-24 0 -41.5 15.5t-17.5 40.5t17.5 40t41.5 15q23 0 40 -15t17 -40z" />
    <glyph glyph-name="uni0E0E.alt1" unicode="&#xf71b;" horiz-adv-x="655" 
d="M514 -213l-151 48q-23 8 -47 15t-49 7q-32 0 -53 -16.5t-21 -52.5h-66q0 33 10.5 57.5t29.5 40.5t44.5 24t54.5 8q31 0 59.5 -7t54.5 -16l125 -45v483q0 43 -8 74t-26 50.5t-47.5 28.5t-71.5 9q-45 0 -83 -6.5t-71 -15.5v-351q0 -69 -30.5 -101t-85.5 -32q-21 0 -37 2
t-27 5v63q9 -3 21.5 -5.5t26.5 -2.5q26 0 41 16.5t15 56.5v395q48 15 106.5 27.5t128.5 12.5q112 0 168 -53t56 -168v-551h-67z" />
    <glyph glyph-name="uni0E0F.alt1" unicode="&#xf71c;" horiz-adv-x="655" 
d="M501 -213q-51 0 -91.5 17.5t-53.5 59.5q-11 -35 -44.5 -57t-85.5 -22q-26 0 -51.5 5t-48.5 18v67q21 -14 44 -23t53 -9q42 0 66 20.5t34 63.5h64q11 -42 36.5 -60.5t63.5 -18.5h18v485q0 43 -8 74t-26 50.5t-47.5 28.5t-71.5 9q-45 0 -83 -6.5t-71 -15.5v-351
q0 -69 -30.5 -101t-85.5 -32q-21 0 -37 2t-27 5v63q9 -3 21.5 -5.5t26.5 -2.5q26 0 41 16.5t15 56.5v395q48 15 106.5 27.5t128.5 12.5q112 0 168 -53t56 -168v-551h-80z" />
    <glyph glyph-name="uni0E2C.alt1" unicode="&#xf71d;" horiz-adv-x="681" 
d="M525 0l-187 295l-183 -295h-79v547h74v-323q0 -35 -1.5 -68.5t-6.5 -78.5h2q9 18 17 33.5t16 30.5t18 31.5t23 36.5l91 147h60l93 -148q13 -20 23 -36.5t18.5 -31.5t16.5 -30t17 -33h2q-5 35 -6.5 73.5t-1.5 73.5v130q0 53 -20 71t-58 18q-21 0 -39.5 -3t-32.5 -7v57
q32 13 80 13l82 91h85l-98 -102q36 -13 55.5 -45t19.5 -87v-360h-80z" />
    <glyph glyph-name="uniF8FF" unicode="&#xf8ff;" horiz-adv-x="1170" 
d="M1070 555v-555l-485 -276l-485 276v555l485 277zM614 779l310 -479l93 248zM153 548l93 -248l310 479zM129 18l98 251v2l-98 261v-514zM556 -230l-310 469l-93 -239zM261 269l324 -492l324 492l-324 501zM1018 0l-94 239l-310 -469zM1041 532l-98 -263l98 -251v514z
M415 300q2 -2 5 -4t4 -4q0 -5 1 -8q-20 -23 -36.5 -29t-25.5 -6q18 12 32.5 28.5t19.5 22.5zM450 199q8 0 10 -14t-1 -27q-5 -14 -14 -19.5t-21 -5.5q-15 1 -22.5 10.5t-10.5 21.5t-4 22.5t-2 15.5q-2 8 -2 19t-1 23h1q8 3 18 9.5t21 17.5q4 -19 2.5 -38t-4.5 -33
q-1 -4 -1.5 -11t0.5 -13.5t2.5 -12.5t5.5 -7q7 -2 9 3t3 8q1 8 -1.5 10.5t-4.5 6.5q-2 5 5.5 9.5t11.5 4.5zM558 212q1 1 1.5 4t2.5 6q1 4 3 8q-1 -2 -0.5 -8.5t0.5 -14.5q0 -9 1 -19q-6 1 -11 6q-3 2 -4 3q1 2 3 5q1 2 2 5t2 5zM765 173q2 5 5 8t5 9v-6v-6t-2 -8
q-3 -8 -5 -22t-2 -22q2 -8 2.5 -14t-4.5 -8q1 1 1 4q0 2 -2 12q-5 11 -3 30q1 4 2 11t3 12zM553 125q4 -4 9 -2q3 0 6 2q0 -8 1.5 -13.5t-0.5 -10.5q-1 3 -4 7t-9 2q-3 0 -7 -8q-2 8 -8 8q-5 0 -6.5 -3t-3.5 -6l-4 6l-6 3q-3 0 -5.5 -3.5t-4.5 -5.5q-2 7 2 22q1 3 0.5 8.5
t-0.5 10.5q-1 6 -1 13q14 -6 25 -16t16 -14zM576 168q2 2 10 2q1 -4 -2 -13q-8 6 -8 11zM568 155q2 2 6 1t7 -3l-2 -4q-1 -2 -2 -3t-2 -3q-7 5 -7 12zM562 141q2 1 10 -3q-5 -5 -9 -6q-2 2 -3.5 5t0.5 3zM558 106q5 2 7 -6q-2 -4 -13 -6q2 12 6 12zM541 105q2 0 3 -3.5
t3 -7.5h-6h-8q0 4 2.5 7.5t5.5 3.5zM524 104q4 -4 4 -9q-10 2 -13 4q6 8 7 7zM748 106q3 1 7 -6q-2 -2 -5 -3.5t-9 -2.5q3 12 7 12zM730 105q2 0 4 -3.5t3 -7.5h-6h-8q1 4 3 7.5t4 3.5zM713 105q3 -3 5 -10q-5 2 -8.5 2.5t-5.5 1.5q3 8 6 7zM798 241q1 -3 3 -7q1 -3 2 -7.5
t1 -9.5t-1 -9.5t-2 -8.5l-2 -8q-3 4 -6 10q-2 5 -3.5 14t-0.5 23q1 15 0 28q-1 11 -2.5 23t-4.5 20q-2 -13 -5 -24l-4 -20t-4 -15q-3 -10 -1.5 -24t3.5 -21q2 -8 -3 -13t-9 -16q-3 -8 -4.5 -17t-1.5 -14q0 -7 1 -15.5t5 -17.5q2 -8 0 -10q-2 3 -4.5 6t-7.5 2q-4 0 -8 -8
q-2 8 -9 8q-5 0 -10 -7l-2 6l-7 2q-4 0 -6.5 -3t-4.5 -6q-2 4 -1 9q4 17 7.5 38t-2.5 34q-3 6 -10 14.5t-14.5 19t-13 22t-6.5 25.5q-1 -1 -2 -4q-2 -6 2 -17q-12 -2 -25 -1q-12 1 -27.5 3t-33.5 8q0 2 1 5q1 2 1.5 5.5t2.5 8.5q-2 -4 -6 -8q-3 -4 -6.5 -10.5t-5.5 -15.5
q-2 -6 -8 -19.5t-8 -18.5t7 -11.5t14 -8.5l8 -2t7 -3q-6 0 -9 -5v-2q0 -3 4 -9q-8 2 -10 -2l-1 -4q0 -5 3 -8h-7l-5 -2q-2 -7 2 -12q-2 2 -5 3.5t-7 4.5q-5 4 -11.5 9t-13 9.5t-12 7.5t-7.5 3q-4 2 -10 8.5t-5 23.5q1 8 3 22t3.5 28.5t3.5 27t3 17.5q-2 0 -3 -2
q-1 -1 -5 -11l-16 25q5 3 8.5 8t5.5 9l6 -9l4 -6l4 3q0 1 4.5 6.5t6.5 11.5q5 12 7 27l1.5 7.5t1.5 4.5l3 7l5 12.5t4.5 16t0 17t-8.5 16.5q-8 7 -15.5 9.5t-14.5 2.5q-8 0 -15 -2l5 -0.5t11 -2t12.5 -4t10.5 -7.5q8 -9 8 -22q0 -10 -3.5 -18t-5.5 -16l-3 -7q-1 -2 -1.5 -5
t-2.5 -8q-2 -12 -5 -26q-2 -2 -4.5 -6t-4.5 -7q-3 3 -7 11q-2 4 -4 7l-3 -5q-2 -3 -6.5 -10.5t-9.5 -10.5q-7 -3 -12 -5t-9 -6q-2 -2 -4.5 -5t-4.5 -11q-1 -3 -2.5 -4.5l-3.5 -3.5t-4 -2v2q0 1 -0.5 2.5t-0.5 3.5q-1 2 -0.5 5t0.5 5v4l-16 13l-3 -2q-4 -6 -9 -12
q-5 -5 -11 -12t-13 -14q-1 2 -1 3.5t-1 3.5q-1 -2 -5 -4q-3 -2 -8 -3.5t-13 -1.5q15 11 21 19q3 4 3 6q-1 9 -1 17.5v15.5q0 8 1 16q-1 7 -1.5 22t1.5 23t4.5 15.5t7.5 23.5q6 14 15 18q4 2 10 2q5 6 10 11t10.5 8.5t12.5 4.5q21 2 36.5 -1t28.5 -1q6 1 16 3t21.5 4t22.5 3
t20 0q8 -1 25 -4.5t36.5 -9t37.5 -12.5t29 -15q10 -9 22.5 -19.5t23.5 -24.5t19.5 -31.5t10.5 -40.5t3 -38t2 -24v-17zM450 383q0 2 1.5 3.5l3.5 3.5t4 5q-2 1 -5 1q-6 0 -10 -5q-4 -3 -4 -11q0 -4 1 -7l3 3q2 2 3 3.5t3 3.5zM521 423q-4 6 -8 8t-9 3t-10 0q18 -5 22 -16
q2 -10 2 -17q0 -5 -1 -10q3 5 5 10t2 10.5t-3 11.5z" />
    <glyph glyph-name="NULL" 
 />
    <glyph glyph-name="uni0E33.alt1" horiz-adv-x="513" 
d="M342 0v350q0 81 -35 113t-104 32q-62 0 -105.5 -16t-75.5 -35v67q31 17 78 32.5t113 15.5q42 0 79 -10.5t65 -34.5t44.5 -62.5t16.5 -93.5v-358h-76zM-280 725q0 26 -16.5 41.5t-42.5 15.5t-42.5 -15.5t-16.5 -41.5t16.5 -41.5t42.5 -15.5t42.5 15.5t16.5 41.5zM-222 725
q0 -22 -8 -41.5t-23 -34.5t-37 -23.5t-49 -8.5t-49 8.5t-37 23.5t-23 34.5t-8 41.5t8 41.5t23 34.5t37 23.5t49 8.5t49 -8.5t37 -23.5t23 -34.5t8 -41.5z" />
    <glyph glyph-name="uni0E4E.alt1" 
 />
    <glyph glyph-name="uni0E01.alt" horiz-adv-x="640" 
d="M490 0v341q0 44 -10.5 73.5t-32 47.5t-54.5 25.5t-79 7.5q-24 0 -41 -1.5t-36 -4.5q-21 -20 -36.5 -38.5t-26 -42t-15.5 -54.5t-5 -75v-279h-76v274q0 70 21 117.5t65 88.5l-108 -16v45q48 21 116 35.5t143 14.5q130 0 190.5 -54.5t60.5 -153.5v-351h-76z" />
    <glyph glyph-name="uni0E2B.alt" horiz-adv-x="636" 
d="M488 0v194q0 42 -9.5 69t-26.5 43t-39.5 22t-49.5 6q-60 0 -113 -16.5t-98 -40.5v-277h-76v547h76v-209q18 10 43 20.5t53.5 19t59 14t61.5 5.5q5 0 9 -0.5t9 -0.5l92 151h85l-104 -167q54 -20 79 -67t25 -111v-202h-76z" />
    <glyph glyph-name="uni0E2D.alt" horiz-adv-x="618" 
d="M566 270q0 -75 -22 -128.5t-60.5 -87.5t-90 -50t-109.5 -16q-66 0 -125.5 13.5t-98.5 33.5v260h76v-220q52 -23 143 -23q47 0 86 11.5t66.5 37.5t43 67.5t15.5 101.5q0 112 -55.5 168.5t-165.5 56.5q-63 0 -116 -14t-95 -34v70q38 16 93 29t123 13q71 0 125.5 -20
t91.5 -57.5t56 -91t19 -120.5z" />
    <glyph glyph-name="zero.tab" horiz-adv-x="612" 
d="M306 -12q-117 0 -185 81.5t-68 235.5t68 235.5t185 81.5t185 -81.5t68 -235.5t-68 -235.5t-185 -81.5zM306 559q-91 0 -134 -67t-43 -187t43 -187t134 -67t134 67t43 187t-43 187t-134 67z" />
    <glyph glyph-name="one.tab" horiz-adv-x="612" 
d="M308 0v531q-28 -38 -69 -54t-92 -14v63q58 -2 99 20t70 64h67v-610h-75z" />
    <glyph glyph-name="two.tab" horiz-adv-x="612" 
d="M92 0v57q167 105 248.5 194t81.5 177q0 60 -37.5 95t-115.5 35q-48 0 -89.5 -11t-73.5 -26v68q24 11 68 21.5t101 10.5q60 0 102.5 -16t69.5 -42.5t39 -61.5t12 -72q0 -55 -25 -105.5t-66 -96t-95.5 -86.5t-112.5 -77h309v-64h-416z" />
    <glyph glyph-name="three.tab" horiz-adv-x="612" 
d="M97 89q35 -15 81 -26t98 -11q30 0 57.5 5t48 18.5t33 36.5t12.5 59t-16.5 58.5t-44.5 35.5t-65.5 17.5t-80.5 3.5v61q40 -1 75 4t60.5 18.5t40 36t14.5 56.5q0 96 -136 96q-42 0 -88 -10.5t-77 -25.5v65q28 13 74 23.5t101 10.5q42 0 78.5 -8.5t63.5 -27.5t43 -48t16 -71
q0 -63 -33 -98t-81 -49v-2q27 -4 51 -15.5t42 -30.5t28.5 -45t10.5 -59q0 -47 -16.5 -81t-45.5 -55.5t-69 -31.5t-87 -10q-61 0 -109.5 10t-78.5 24v66z" />
    <glyph glyph-name="four.tab" horiz-adv-x="612" 
d="M381 0v127h-324v56l320 427h79v-421h94v-62h-94v-127h-75zM381 516l-241 -327h241v327z" />
    <glyph glyph-name="five.tab" horiz-adv-x="612" 
d="M94 84q16 -6 36.5 -12t43 -10.5t45.5 -7t44 -2.5q94 0 136.5 31.5t42.5 103.5q0 69 -46 98t-134 29q-51 0 -89.5 -5t-64.5 -10l13 311h362v-64h-295l-8 -178q17 2 47 5t58 3q117 0 175 -51.5t58 -136.5q0 -99 -63.5 -149t-186.5 -50q-48 0 -95.5 8.5t-78.5 20.5v66z" />
    <glyph glyph-name="six.tab" horiz-adv-x="612" 
d="M472 531q-21 10 -51 19t-68 9q-93 0 -145.5 -64t-54.5 -185q27 35 76 60t110 25q55 0 93.5 -16t63 -43.5t35.5 -63t11 -74.5q0 -50 -16 -88.5t-44.5 -65.5t-68.5 -41t-88 -14q-54 0 -99.5 18.5t-77.5 56t-50 95.5t-18 138q0 81 20 141.5t56 101t84.5 61t105.5 20.5
q39 0 71.5 -9t54.5 -18v-63zM153 240q3 -42 15.5 -76.5t34 -59.5t52 -39t69.5 -14q28 0 54 7.5t46.5 25t33 45t12.5 67.5q0 27 -6.5 52t-23 44.5t-43.5 31.5t-67 12q-55 0 -101 -25.5t-76 -70.5z" />
    <glyph glyph-name="seven.tab" horiz-adv-x="612" 
d="M181 0l236 546h-331v64h413v-55l-240 -555h-78z" />
    <glyph glyph-name="eight.tab" horiz-adv-x="612" 
d="M375 309q76 -14 116 -53t40 -99q0 -79 -58.5 -124t-169.5 -45q-50 0 -90.5 10.5t-70 31t-45.5 50t-16 67.5q0 61 38.5 101.5t123.5 58.5v2q-42 9 -70 25t-45.5 36.5t-25 44.5t-7.5 50q0 34 14.5 63t41 49.5t65 32t86.5 11.5q102 0 156.5 -41.5t54.5 -113.5q0 -58 -39 -96
t-99 -59v-2zM296 278q-30 -7 -56.5 -18.5t-45.5 -27t-30 -35t-11 -43.5q0 -57 41.5 -82.5t110.5 -25.5q25 0 52.5 5.5t50 18.5t37 34.5t14.5 53.5q0 28 -12 48t-34 34t-51.5 23t-65.5 15zM321 340q23 9 44.5 19.5t38.5 25.5t27 34.5t10 46.5q0 43 -35 70.5t-104 27.5
q-64 0 -99.5 -28t-35.5 -71q0 -57 39.5 -85t114.5 -40z" />
    <glyph glyph-name="nine.tab" horiz-adv-x="612" 
d="M140 79q21 -11 51 -20t68 -9q93 0 145 64t54 185q-27 -34 -75.5 -59t-109.5 -25q-55 0 -93.5 16t-63 43t-35.5 62.5t-11 74.5q0 49 16 88t44.5 66t68.5 41.5t88 14.5q54 0 99.5 -18.5t77.5 -56.5t50 -96t18 -137q0 -81 -20 -142t-56 -101.5t-85 -60.5t-106 -20
q-38 0 -70.5 8.5t-54.5 18.5v63zM459 370q-3 41 -15.5 76t-34 60t-52 39t-69.5 14q-28 0 -54 -8t-46.5 -25t-33 -44.5t-12.5 -67.5q0 -27 6.5 -52.5t23 -45t43 -31t67.5 -11.5q55 0 100.5 25.5t76.5 70.5z" />
    </font>
</defs>
</svg>
